<?xml version="1.0" standalone="no"?>
<!DOCTYPE svg PUBLIC "-//W3C//DTD SVG 1.1//EN" "http://www.w3.org/Graphics/SVG/1.1/DTD/svg11.dtd" >
<svg>
<metadata>
Created by FontForge 20090622 at Wed Nov 18 11:29:22 2015
 By deploy user
Copyright (c) 2015 by Paul Henry Robb. All rights reserved.
</metadata>
<defs>
<font id="Monk-Medium" horiz-adv-x="578" >
  <font-face 
    font-family="Monk"
    font-weight="500"
    font-stretch="normal"
    units-per-em="1000"
    panose-1="0 0 0 0 0 0 0 0 0 0"
    ascent="750"
    descent="-250"
    x-height="535"
    cap-height="745"
    bbox="0 -232 1306 947"
    underline-thickness="50"
    underline-position="-50"
    unicode-range="U+000D-U+FB02"
  />
<missing-glyph horiz-adv-x="500" 
 />
    <glyph glyph-name=".notdef" horiz-adv-x="500" 
 />
    <glyph glyph-name="NULL" horiz-adv-x="0" 
 />
    <glyph glyph-name="NULL" horiz-adv-x="0" 
 />
    <glyph glyph-name="nonmarkingreturn" unicode="&#xd;" horiz-adv-x="500" 
 />
    <glyph glyph-name="space" unicode=" " horiz-adv-x="250" 
 />
    <glyph glyph-name="d" unicode="d" horiz-adv-x="584" 
d="M502 5q-58 -6 -115.5 -9.5t-115.5 -3.5q-53 0 -100 19.5t-82 53t-55 78.5t-21 99t8.5 104t35 94t73 72.5t101.5 30t75.5 -2l39 -6.5t34.5 -10v238q0 6 19.5 7t41.5 1t41.5 -1t19.5 -5v-759zM381 406q-48 15 -68.5 19t-48 4t-51.5 -7t-42.5 -26t-29.5 -53t-10.5 -92.5
t27.5 -92t59.5 -47t55 -13.5t48.5 1t60 3v304z" />
    <glyph glyph-name="e" unicode="e" horiz-adv-x="593" 
d="M169 181q12 -35 38 -59.5t57.5 -27t64.5 2t110 28.5q4 1 11 -15t11 -32.5t6 -35.5t-2 -20q-60 -20 -113.5 -25.5t-71.5 -5.5q-57 0 -102 20.5t-76 55t-48.5 78.5t-20.5 110.5t17 119t52.5 89.5t78 58.5t114 21.5t110.5 -22.5t70.5 -60t43 -85.5t14.5 -100q0 -8 -6 -12z
M412 350q-2 10 -10.5 26.5t-23 29.5t-35 21.5t-56.5 7.5t-62 -13.5t-43.5 -32t-26 -45.5t-2.5 -57z" />
    <glyph glyph-name="f" unicode="f" horiz-adv-x="427" 
d="M381 764q5 -1 7 -37q0 -25 -4 -48.5t-8 -23.5l-53 2q-93 6 -125.5 -23t-32.5 -74v-32q36 8 68 9t43 1t13 -1.5t3 -12.5t1 -36t-4.5 -44t-7.5 -19q-30 0 -60 -5t-56 -12v-402q0 -2 -21 -4t-42 -2t-40 2t-19 4v558q2 47 22 85.5t52 64.5t73.5 41t87.5 15q25 0 51 -1t52 -5z
" />
    <glyph glyph-name="h" unicode="h" horiz-adv-x="590" 
d="M170 491q26 24 61.5 37t64.5 13.5t49.5 -1t42.5 -7.5t43.5 -16t41 -28.5t31.5 -37t19.5 -42t10.5 -53.5t3 -71v-279q0 -2 -17 -4t-40 -2t-44 2t-21 4v290q0 21 -4 46t-16.5 46.5t-34.5 35.5t-59 16.5t-66.5 -10t-45.5 -35t-18 -46.5l-1 -343q0 -2 -23 -4t-31 -2h-18
t-21 0.5t-20 2t-9 3.5v758q0 2 19.5 4t42.5 2t41.5 -2t18.5 -4v-273z" />
    <glyph glyph-name="i" unicode="i" horiz-adv-x="251" 
d="M49 745q0 2 19 4t41.5 2t42 -2t19.5 -4v-122q0 -2 -19.5 -4t-42 -2t-41.5 2t-19 4v122zM171 528l-2 -522q0 -2 -23 -4t-40.5 -2t-37.5 2t-20 4v264v123t1 135q0 2 19 4.5t41.5 2.5t42 -2.5t19.5 -4.5z" />
    <glyph glyph-name="j" unicode="j" horiz-adv-x="380" 
d="M245 752q22 0 41.5 -2t19.5 -4v-122q0 -2 -19.5 -4t-42 -2t-41.5 2t-19 4v122q0 2 19 4t42 2zM305 529v-489q0 -63 -28 -117t-78 -78.5t-90.5 -32.5l-76.5 -15q-4 -1 -10 14.5t-9.5 28t-6 38t0.5 26.5l82.5 19.5t43.5 17.5t37.5 41t12.5 50v497q0 2 19.5 4t42 2t41 -2
t19.5 -4z" />
    <glyph glyph-name="k" unicode="k" horiz-adv-x="590" 
d="M486 492l-135 -179l83 -146q8 -15 20.5 -32t37.5 -17h44q4 0 8 -13.5t3.5 -55t-4 -45.5t-63.5 -4q-30 2 -57 16.5t-47 33.5t-45 60l-89 158h-72v-260q-1 -4 -20 -6t-41.5 -2t-41.5 2t-19 5v757q0 2 19 4t41.5 2t42 -2t19.5 -4v-394h74l138 179q23 -4 47.5 -15.5
t43.5 -28.5z" />
    <glyph glyph-name="l" unicode="l" horiz-adv-x="296" 
d="M195 115l39 -1q4 0 6.5 -17t2.5 -39q0 -23 -2 -40.5t-6 -17.5h-47q-69 3 -105 37.5t-36 110.5v614q0 5 30.5 7t59.5 0t30 -7l1 -615q0 -13 6.5 -22.5t20.5 -9.5z" />
    <glyph glyph-name="m" unicode="m" horiz-adv-x="916" 
d="M836 7q0 -6 -42 -6.5t-60.5 1t-19.5 5.5v306q-1 31 -8.5 53t-21 34.5t-31 19t-45 5t-46.5 -14.5t-35.5 -39.5t-19.5 -90.5l-1 -195q0 -2 -22 -4t-44.5 -2t-42 2t-19.5 4v195q0 24 -7 50.5t-22.5 47.5t-41.5 34t-50 13.5t-36 -1l-31 -4t-20 -2.5v-412q0 -2 -19 -4
t-41.5 -2t-42 2t-19.5 4v520q25 4 51.5 7.5t51 5.5t47.5 3t46 1q63 0 114.5 -25.5t83.5 -81.5q6 21 41 53t71.5 42t70.5 10q112 0 161.5 -59.5t49.5 -171.5v-303z" />
    <glyph glyph-name="n" unicode="n" horiz-adv-x="587" 
d="M170 427v-419q0 -4 -19 -6t-42 -2q-22 0 -41.5 2t-19.5 6v517q51 8 101.5 13t101.5 5q63 1 115 -20t88.5 -59t57 -91.5t20.5 -100t-8 -79.5t-20.5 -67.5t-27.5 -68.5t-30 -64q-1 -2 -21 4t-38.5 15.5t-34.5 20t-14 17.5l10.5 25.5l33.5 79t23 117t-39.5 110.5t-97 48
t-98.5 -3z" />
    <glyph glyph-name="o" unicode="o" horiz-adv-x="604" 
d="M36 237v62q0 52 18 97t50.5 78t76.5 51t104 18.5t104 -18t76.5 -51.5t50.5 -78t18 -97v-62q0 -53 -18 -97.5t-50.5 -77.5t-76.5 -51.5t-104 -18.5t-104 18.5t-76.5 51.5t-50.5 77.5t-18 97.5zM157 226q0 -27 8.5 -50.5t24.5 -41t38 -27t71 -9t81 36.5t32 91v73
q0 27 -7 53t-20.5 46t-37 32.5t-60.5 12.5t-61.5 -12.5t-39.5 -32t-22 -46t-7 -53.5v-73z" />
    <glyph glyph-name="p" unicode="p" horiz-adv-x="613" 
d="M170 -5v-217q0 -2 -19.5 -5t-42 -3t-41.5 3t-19 5v751q82 9 104 10.5t52 3t65 1.5q25 0 53 -3t55 -11t53 -21t48 -33t35.5 -44.5t20.5 -51t9.5 -53.5t2.5 -87.5t-28.5 -116.5t-71.5 -85t-93 -37.5t-89 -8.5t-94 3zM170 430v-329q31 -2 51.5 -3t48 -1t58.5 6t52.5 25.5
t33 56t11.5 84.5t-6 75t-23.5 48.5t-49.5 34t-60.5 12.5t-115.5 -9z" />
    <glyph glyph-name="q" unicode="q" horiz-adv-x="584" 
d="M376 11q-46 -12 -72 -15.5t-63 -2.5t-73.5 12t-71 39.5t-56.5 79.5t-25 97t-1 89.5t20.5 87.5t51.5 76.5t78.5 51t99.5 17.5q35 0 67 -1t56.5 -2.5t39.5 -3t71 -7.5v-596q2 -44 63 -47h6q6 0 6.5 -15t-0.5 -39t-3.5 -39.5t-4 -19t-7.5 -3.5q-43 -1 -77.5 13.5t-57.5 39.5
t-35 55t-12 70v63zM376 432q-34 2 -60.5 3t-67 1t-76 -35.5t-36.5 -112.5q0 -100 31.5 -141t76 -44t73 4.5t59.5 16.5v308z" />
    <glyph glyph-name="r" unicode="r" horiz-adv-x="402" 
d="M168 425v-418q0 -2 -19 -4.5t-42 -2.5t-41.5 2.5t-18.5 4.5v509q2 1 33 10t62.5 13t58.5 4t50 -1t46.5 -4t38.5 -7t21 -11q4 -4 0.5 -26.5t-7.5 -38.5t-8.5 -27.5t-7.5 -10.5l-30 6.5t-26.5 4.5t-52 1.5t-57.5 -4.5z" />
    <glyph glyph-name="s" unicode="s" horiz-adv-x="550" 
d="M435 421q-115 19 -179.5 21t-79 -11.5t-16.5 -34t4.5 -35t51 -24.5t80.5 -17l69.5 -13.5t62 -21t47 -42t18.5 -71.5q-2 -51 -9 -77.5t-30 -50t-48 -33.5t-58.5 -15t-83.5 -4q-42 0 -74.5 4t-71.5 14.5t-56.5 18t-18.5 11t6 27.5t19 48t16 21q16 -8 56 -20t81.5 -16.5
t65 -4.5t49 5.5t31 21t6 38.5t-29.5 35.5t-68 19t-82 16t-78.5 26.5t-54.5 47t-20 73t10 71t33 49t59.5 34t91.5 12q57 0 118 -6t105 -15l2.5 -1t1.5 -28t-12 -50t-14 -22z" />
    <glyph glyph-name="t" unicode="t" horiz-adv-x="367" 
d="M167 408v-212q1 -13 5.5 -27.5t16 -27t31.5 -21.5t59 -10h29q6 0 9 -31.5t-1 -52t-5.5 -22t-16.5 -2.5t-66 -2q-23 0 -48 3t-48 14q-20 10 -36 27.5t-27.5 39t-17.5 46t-6 48.5v548q0 2 20 4.5t43 2.5t41 -2.5t18 -4.5v-198q38 11 120 10q4 0 6.5 -14t2.5 -43.5t-5.5 -43
t-9.5 -12.5q-27 0 -60 -5.5t-54 -11.5z" />
    <glyph glyph-name="u" unicode="u" horiz-adv-x="612" 
d="M408 108v418q0 3 20 6t43 3q59 0 59 -9v-518l-52 -6q-31 -3 -55.5 -5t-56.5 -3.5t-68 -1.5q-128 -1 -190.5 56t-65.5 168v310q0 3 19.5 6t42.5 3q60 -2 60 -9v-305q1 -26 7 -48t21 -38t40.5 -25t51.5 -9t43 0.5t81 6.5z" />
    <glyph glyph-name="v" unicode="v" horiz-adv-x="625" 
d="M364 9q-1 -4 -20.5 -6.5t-49.5 -2.5t-48 3t-20 6l-204 489q-2 3 26 18t47.5 19.5t27.5 6t11 1.5q2 -4 161 -391l159 390q2 3 35.5 -5.5t56 -22.5t20.5 -18z" />
    <glyph glyph-name="w" unicode="w" horiz-adv-x="827" 
d="M332 221v183q0 2 19.5 4t44 2t44 -2t19.5 -4v-183q5 -46 15.5 -65t28 -32.5t40.5 -13.5t35.5 4.5t23 16.5t17 33t6.5 54l2 311q0 2 17.5 4.5t47.5 1.5q31 -1 43.5 -2.5t12.5 -3.5l-2 -304q-1 -109 -53 -169t-146 -64h-10q-33 0 -54.5 6.5t-36.5 17.5t-26.5 25l-23.5 29
q-45 -43 -61.5 -54t-36 -17.5t-57.5 -6.5h-10q-79 4 -132.5 65.5t-53.5 167.5v304q0 3 19.5 4.5t42 1.5t41 -2t18.5 -4v-311q0 -33 7 -54t18.5 -33t26.5 -17t35.5 -4t37.5 14.5t27 31.5t14 65z" />
    <glyph glyph-name="x" unicode="x" horiz-adv-x="678" 
d="M603 8q3 -2 -22.5 -5t-56.5 -3t-49.5 2.5t-18.5 4.5l-135 167l-134 -166q-2 -2 -20 -5t-49 -3t-56 3t-22 5l207 258l-205 260q-1 1 16 4.5t31 4t37 0.5t42.5 -3.5t21.5 -5.5l131 -168l132 168q2 2 21 5.5t49.5 3.5t56 -3t21.5 -6l-206 -260z" />
    <glyph glyph-name="y" unicode="y" horiz-adv-x="673" 
d="M371 99l121 430q0 2 20 4t43 2t42.5 -2t19.5 -4q-156 -580 -167.5 -613t-30 -62t-48 -48.5t-62.5 -26.5t-66.5 -7.5t-58 8.5t-41.5 22.5t-30.5 30.5t-49.5 48q-3 2 12 27t36.5 42.5t23.5 15.5q36 -26 51.5 -49t29.5 -33t33 -10.5t33 4t24.5 16t16.5 27.5t6.5 33.5
t0.5 32.5l-49 16q-11 5 -18 12t-15 25l-212 487q-1 2 20 5t44.5 3t43.5 -2t21 -4l185 -420q8 -8 21 -10z" />
    <glyph glyph-name="Edieresis" unicode="&#xcb;" horiz-adv-x="646" 
d="M253 882v-94q0 -6 -32 -8t-60.5 0t-29.5 8v94q0 3 19 5.5t41.5 2.5t41.5 -2.5t20 -5.5zM483 882v-94q0 -6 -32 -8t-60.5 0t-29.5 8v94q0 3 19 5.5t41.5 2.5t41.5 -2.5t20 -5.5zM577 63q-11 -7 -98 -34t-112 -31q-35 -6 -77 -6q-44 0 -83.5 10t-72.5 29.5t-58 49t-37 60
t-12 72.5t24.5 85t62.5 76q-34 26 -59.5 69.5t-25.5 95t22.5 91.5t61.5 70t89.5 42.5t98.5 12.5q31 0 82.5 -8t174.5 -40q3 -1 3.5 -10.5t-3 -29t-8.5 -38t-11.5 -32t-9.5 -12.5q-138 43 -192 46.5t-81 -2t-46 -15.5t-32 -27t-13 -40.5t11 -41.5t28 -31.5t38 -22t41 -9.5
h197q2 0 6.5 -28.5t0 -60t-6.5 -31.5h-192q-25 0 -47 -8.5t-39 -23t-27 -33.5t-10 -43.5t13 -44t32.5 -31.5t43.5 -17.5t59.5 -5t228.5 59.5h1.5t11.5 -14t16 -33q7 -23 8 -44t-2 -21z" />
    <glyph glyph-name="z" unicode="z" horiz-adv-x="580" 
d="M479 424l-303 -315h315q4 0 6 -16t2 -39t-2 -38.5t-6 -15.5h-404q-14 16 -29.5 47t-15.5 56q0 19 12 31l282 298h-266q-2 0 -6 16t-4 38t2 35.5t6 13.5h411q4 0 8.5 -6t8 -32.5t-5 -48.5t-11.5 -24z" />
    <glyph glyph-name="A" unicode="A" horiz-adv-x="677" 
d="M620 34q0 -3 -15 -10.5t-35.5 -14.5t-41.5 -12t-31 -5q-4 0 -4 1l-53 163q-55 -20 -126.5 -20t-135.5 19l-37 -162q0 -2 -33.5 3t-58.5 15.5t-24 13.5q3 19 12.5 62t30 124t85 268.5t87 217.5t49.5 39.5t64.5 8t38.5 -4.5zM312 560q-17 -39 -33 -82t-29.5 -83.5l-24 -74
t-17.5 -53.5q98 -31 196 3z" />
    <glyph glyph-name="B" unicode="B" horiz-adv-x="695" 
d="M544 398q18 -5 40 -26.5t31 -63.5t9 -98.5t-16 -94.5t-46 -65.5t-73 -42.5t-76 -15h-40t-325 8v745q289 14 326 9t63 -12.5t52 -21.5t46.5 -36t33.5 -53.5t16.5 -80.5t-7 -86.5t-34.5 -65.5zM181 628v-507q194 -7 219 -4.5t43 12t31.5 27t14 62t-13.5 65t-34 29.5
t-43.5 10t-117.5 0q-4 0 -8.5 30.5t-0.5 60t8 29.5l113 1q21 1 35 14t20 32t6 58t-14 56t-33.5 25t-67.5 8z" />
    <glyph glyph-name="C" unicode="C" horiz-adv-x="664" 
d="M173 260q0 -30 11 -56t30.5 -45.5t45.5 -30.5t65.5 -10.5t76.5 10t76 21.5l78 24q3 1 15.5 -27t17.5 -60t2 -32q-156 -48 -194.5 -55t-78.5 -7q-59 0 -110 22t-88.5 60t-59.5 88.5t-22 108.5v210q0 62 23 113t62.5 87t91.5 55t113 19q65 0 128.5 -15l126.5 -30
q3 -1 1 -30.5t-14.5 -60.5t-15.5 -30l-116 30t-105.5 15t-72.5 -10.5t-45.5 -29.5t-30.5 -44t-11 -55v-235z" />
    <glyph glyph-name="D" unicode="D" horiz-adv-x="676" 
d="M48 745l262 10q69 1 116.5 -19t91.5 -65t65 -108.5t21 -132.5v-177q0 -55 -18.5 -102t-51.5 -82t-79 -55t-108 -22l-299 8v745zM182 122l151 -4q65 0 87.5 19t35.5 45.5t13 64.5l-1 190q0 46 -14 82.5t-35 61.5t-47 38t-51 13l-139 -7v-503z" />
    <glyph glyph-name="E" unicode="E" horiz-adv-x="656" 
d="M586 63q-11 -7 -98 -34t-112 -31q-35 -6 -77 -6q-44 0 -83.5 10t-72.5 29.5t-58 49t-37 60t-12 72.5t24.5 85t62.5 76q-34 26 -59.5 69.5t-25.5 95t22.5 91.5t61.5 70t89.5 42.5t98.5 12.5q31 0 82.5 -8t174.5 -40q3 -1 3.5 -10.5t-3 -29t-8.5 -38t-11.5 -32t-9.5 -12.5
q-138 43 -192 46.5t-81 -2t-46 -15.5t-32 -27t-13 -40.5t11 -41.5t28 -31.5t38 -22t41 -9.5h197q2 0 6.5 -28.5t0 -60t-6.5 -31.5h-192q-25 0 -47 -8.5t-39 -23t-27 -33.5t-10 -43.5t13 -44t32.5 -31.5t43.5 -17.5t59.5 -5t228.5 59.5h1.5t11.5 -14t16 -33q7 -23 8 -44
t-2 -21z" />
    <glyph glyph-name="F" unicode="F" horiz-adv-x="606" 
d="M555 637l-373 -7v-183q23 8 49.5 13t50 4.5t46 -4t72.5 -19.5q4 -1 3 -16t-5.5 -37.5t-15.5 -46t-14 -21.5q-47 17 -81 18t-58 -4t-47 -20v-306q0 -2 -19.5 -5t-48.5 -3q-28 0 -47.5 3t-19.5 5v737l507 9q5 -1 7.5 -18.5t2.5 -35.5q0 -8 -0.5 -19t-2 -21t-3 -16.5
t-3.5 -6.5z" />
    <glyph glyph-name="G" unicode="G" horiz-adv-x="662" 
d="M593 395v-127q0 -59 -22 -109t-61 -87.5t-92 -58.5t-116 -21t-110.5 22t-81.5 59.5t-53 88t-19 107.5v209q0 58 19 108.5t53 88t81.5 59t104.5 21.5h2q6 0 28 -0.5t68 -6t168 -37.5q1 0 1 -9.5t-3.5 -28.5t-8.5 -37t-9.5 -31.5t-7.5 -13.5q-143 35 -177.5 39.5t-62 4
t-50.5 -12t-39 -31t-24.5 -46t-8.5 -55.5v-233q0 -29 9.5 -55t26.5 -45.5t41.5 -30.5t54.5 -11t58 10.5t51 27.5t36.5 46t9.5 135q-33 17 -61.5 23t-93.5 6q-2 0 -4.5 18t-2.5 43t2.5 43t6.5 19q77 1 129 -12t98.5 -37t59.5 -42z" />
    <glyph glyph-name="H" unicode="H" horiz-adv-x="662" 
d="M446 376v361q0 2 20.5 5t48 3t47 -3t19.5 -5v-729q0 -2 -19.5 -5t-47 -3t-48 3t-20.5 5v242q-29 -8 -63 -15.5t-69 -7.5t-69.5 7.5t-63.5 16.5v-243q0 -2 -20 -5t-47.5 -3t-47 3t-19.5 5v729q0 2 19.5 5t47 3t47.5 -3t20 -5v-360q10 -4 25.5 -9.5t33.5 -11t37.5 -9
t36 -3.5t35.5 3t37 8t33.5 10.5t26.5 10.5z" />
    <glyph glyph-name="I" unicode="I" horiz-adv-x="259" 
d="M180 8q0 -2 -20 -5t-47.5 -3t-47 3t-19.5 5v729q0 2 19.5 5t47 3t47.5 -3t20 -5v-729z" />
    <glyph glyph-name="J" unicode="J" horiz-adv-x="377" 
d="M304 237q0 -51 -19 -95.5t-54.5 -77.5t-85.5 -52.5t-124 -19.5q-2 0 -6 19.5t-5 47t3 40t8 13.5q36 0 60.5 8t44.5 23.5t32.5 38t12.5 55.5v501q0 3 21 4.5t46 2t45.5 -1t20.5 -5.5v-501z" />
    <glyph glyph-name="K" unicode="K" horiz-adv-x="679" 
d="M356 376q146 -226 163 -239t34 -13l49 -1q4 0 7 -19t3.5 -42.5t-2 -42.5t-8.5 -19q-61 0 -85.5 4t-50 20t-44 39.5t-171.5 249.5h-71v-304q0 -2 -11.5 -5.5t-50.5 -3.5t-55.5 2t-16.5 7v728q1 4 34.5 6.5t66.5 0.5t33 -7v-292h84l227 314q7 1 33 -12.5t45 -33.5t17 -22z
" />
    <glyph glyph-name="L" unicode="L" horiz-adv-x="514" 
d="M463 122q2 0 5.5 -15.5t3.5 -44.5t-3.5 -45.5t-5.5 -16.5h-211q-48 0 -86.5 14.5t-66 41t-42.5 62.5t-15 79v539q0 2 19.5 5.5t48.5 3.5t47.5 -3.5t18.5 -5.5v-546q0 -21 9.5 -34.5t22 -21t27.5 -10.5t228 -2z" />
    <glyph glyph-name="M" unicode="M" horiz-adv-x="1009" 
d="M551 518v-283q0 -2 -18.5 -6.5t-46.5 -4.5t-46.5 4.5t-18.5 6.5v285q-92 91 -115 99t-44.5 8t-45.5 -12.5t-37 -45t-6.5 -106.5t35 -161t40.5 -139.5t16 -152.5q1 -3 -21 -6.5t-56 -3.5q-24 0 -40.5 2.5t-16.5 4.5q-10 123 -25 177l-30 104.5t-26.5 101.5t-11.5 115.5
t17.5 109t47 74.5t70 48t82.5 18q33 0 62 -6.5t56 -21t55 -38t60 -56.5q32 33 60 56.5t55 38t55.5 21.5t61.5 6q43 0 83.5 -18t67 -48t47 -74.5t21 -102.5t-5.5 -103t-24.5 -106.5t-31.5 -99t-23 -89t-9 -107.5q0 -2 -16.5 -4.5t-44 -2.5t-50.5 3.5t-23 6.5q-4 18 6.5 91
t22.5 114.5l23 76.5t27.5 99t15 109t-12 71t-37 42t-54.5 15t-50.5 -13.5t-99.5 -96.5z" />
    <glyph glyph-name="N" unicode="N" horiz-adv-x="696" 
d="M181 615l-2 -606q0 -5 -22 -7t-47.5 -2t-45 3t-19.5 7v721q80 10 113 13l67 6t65.5 4t56.5 1q61 0 111.5 -24.5t88 -65t59.5 -93.5t24.5 -134.5t-8 -136t-29 -106.5t-46.5 -91.5t-68 -77.5q-9 -9 -19 -17l-21 -16q-2 -3 -27 13t-43 46t-15 34q27 18 48 41q30 31 47 66.5
t27.5 75.5t15 81.5t2.5 86.5t-15.5 81t-35.5 60.5t-48.5 36.5t-45.5 12t-58.5 -2.5t-109.5 -9.5z" />
    <glyph glyph-name="O" unicode="O" horiz-adv-x="662" 
d="M591 251q0 -57 -22 -105t-59.5 -82t-88 -53t-108 -19t-108 19t-88 53t-59.5 82t-22 105v248q0 57 22 104.5t59.5 81t88 52t108 18.5t108 -18.5t88 -52t59.5 -81t22 -104.5v-248zM457 494q0 29 -11 55t-30.5 45.5t-45.5 30.5t-56.5 11t-56.5 -11t-45.5 -30.5t-30.5 -45.5
t-11 -55v-236q0 -29 11 -55t30.5 -45.5t45.5 -30.5t56.5 -11t56.5 11t45.5 30.5t30.5 45.5t11 55v236z" />
    <glyph glyph-name="P" unicode="P" horiz-adv-x="627" 
d="M179 271v-263q0 -2 -20.5 -5t-48 -3t-47 3t-19.5 5v737q294 10 311 10q75 0 123.5 -30t71 -91t21 -133.5t-23.5 -116.5t-57 -69.5t-74.5 -36.5t-236.5 -7zM177 637l2 -256q130 -1 160.5 0.5t51 8.5t31 22.5t14 45.5t3.5 63.5t-6.5 58.5t-18 39.5t-28.5 20t-31 5.5
t-178 -8z" />
    <glyph glyph-name="Q" unicode="Q" horiz-adv-x="658" 
d="M586 252q0 -54 -19 -96t-53 -79q34 -11 52 -21q4 -2 -2 -26t-14.5 -44t-19 -36.5t-13.5 -14.5q-54 26 -87.5 32t-58 6t-62 -6.5t-87.5 -30.5q-3 -2 -20 17.5t-24 66.5q-66 35 -105.5 94t-39.5 138v237q0 57 21.5 105.5t59 84.5t88 56t108 20t107.5 -20t87.5 -56
t59.5 -84.5t22 -105.5v-237zM167 246q0 -29 11 -53.5t30.5 -41.5t45 -26.5t55.5 -9.5t56 6.5t45.5 20t30.5 34.5t11 50v278q0 29 -11 53t-30.5 41.5t-45.5 27t-56 9.5t-55.5 -9.5t-45 -27t-30.5 -41.5t-11 -53v-258z" />
    <glyph glyph-name="R" unicode="R" horiz-adv-x="644" 
d="M164 266v-258q0 -2 -19 -5t-47 -3t-47.5 3t-19.5 5v737q252 9 268.5 9.5t36.5 0.5q55 0 98 -17.5t72.5 -49t45 -76t15.5 -105.5t-16 -105.5t-41 -70.5t-54 -38t-57 -17l160 -270q8 -11 26 -13.5t45 -1.5q2 0 7 -14.5t5 -44.5q0 -28 -5 -42.5t-7 -14.5q-23 -3 -58 -2.5
t-67.5 13.5t-49.5 41l-198 339h-93zM167 378q156 -9 201.5 10.5t51.5 54t5.5 85t-22.5 77.5t-52 31t-91.5 1t-94.5 -6z" />
    <glyph glyph-name="S" unicode="S" horiz-adv-x="642" 
d="M521 609q-7 1 -39 6t-81.5 11t-84.5 7.5t-61 -1.5t-41 -11.5t-24 -24.5t-11.5 -54t8.5 -55.5t35 -27t102.5 -21t126.5 -29t71 -37t37.5 -48.5t12.5 -125t-64.5 -151.5t-141.5 -55.5t-145 7.5t-186 49.5q-3 1 1.5 34.5t18 59.5t16.5 25q29 -11 61 -21t64 -17.5t66.5 -12
t56.5 -4.5t41.5 3.5t37.5 13.5t27.5 32.5t9.5 59.5t-12.5 52t-32.5 23t-47 13.5t-98 16t-112 32t-64 54.5t-24 95.5t8.5 104.5t30 67.5t49 40.5t67.5 22.5t68.5 9.5t54.5 2q31 0 54.5 -2.5t63.5 -7.5t109 -18q4 -1 1 -31.5t-12 -59.5t-18 -27z" />
    <glyph glyph-name="T" unicode="T" horiz-adv-x="623" 
d="M562 755q5 -1 8.5 -32.5t-0.5 -62.5t-8 -31q-86 0 -127 -2t-83 -6v-613q0 -2 -19.5 -5t-47.5 -3t-47.5 3t-19.5 5v594q-76 -14 -160 -48q-5 -2 -19 24t-20 57t-4 33q76 35 138.5 50.5t154.5 26t254 10.5z" />
    <glyph glyph-name="U" unicode="U" horiz-adv-x="690" 
d="M477 132l2 605q0 4 19.5 6t47.5 2t47.5 -2t19.5 -6v-724q-150 -14 -187 -16.5t-68.5 -3.5t-46.5 -1q-41 0 -91 16t-92.5 53t-71 95t-28.5 139.5t13.5 134t36 92t47.5 67.5t54 64.5t58 91.5q1 2 35.5 -6.5t57.5 -25t22 -19.5q-14 -34 -39.5 -71.5t-55 -69.5t-56.5 -76.5
t-34.5 -90t-6 -89t16.5 -77t38 -56.5t60 -35.5t82.5 -10t119.5 13.5z" />
    <glyph glyph-name="V" unicode="V" horiz-adv-x="700" 
d="M408 8q-1 -4 -25 -6t-53.5 -2t-51 2.5t-22.5 5.5l-235 704q-1 4 26 17.5t57.5 19.5t37 6t6.5 -1l184 -556l183 555q2 4 37 -1.5t63.5 -20.5t27.5 -18z" />
    <glyph glyph-name="W" unicode="W" horiz-adv-x="1030" 
d="M672 181l68 174t103 399q0 2 34 -1.5t61.5 -14.5t26.5 -14q-67 -312 -94.5 -399.5t-101.5 -307.5q-3 -6 -15 -11t-28 -8t-33.5 -4.5t-30.5 -1.5h-14q-5 6 -14.5 19.5t-42.5 65l-51 80.5t-43 98q-25 -73 -42.5 -100l-51 -78.5t-43 -65t-11 -16t-2.5 -3.5h-14
q-13 0 -30.5 1.5t-33.5 4.5t-28 8t-15 11q-65 203 -83 264.5l-35.5 123.5t-38 145.5t-26.5 110l-9.5 42t-4 18.5t26.5 14.5t60.5 16.5t34.5 2q51 -213 73 -290t34 -111.5t33.5 -88t31.5 -83.5q68 128 83 162.5t18.5 65t5.5 143.5q0 2 19.5 5t48 3t48 -3t19.5 -5
q0 -104 5 -138.5t19 -69.5t83 -163z" />
    <glyph glyph-name="X" unicode="X" horiz-adv-x="709" 
d="M348 494l188 261q1 2 29 -11.5t51.5 -36.5t21.5 -26l-222 -309l221 -305q4 -5 -15.5 -26.5t-52 -36.5t-34.5 -11l-197 271l-198 -271q-2 -4 -30.5 11.5t-51 37t-20.5 24.5q220 300 220.5 306t-12.5 38t-41.5 78t-71 82t-95.5 63q-3 1 -0.5 32.5t22.5 61t24 28.5
q67 -29 116.5 -66.5t87.5 -92t60 -102.5z" />
    <glyph glyph-name="Y" unicode="Y" horiz-adv-x="653" 
d="M448 299q-32 -19 -73 -28.5t-86 -9.5t-94.5 16t-86 45t-54.5 72.5t-19 127.5v214q0 5 34 7.5t66 0t32 -6.5l-1 -211q0 -71 21.5 -97t48 -35.5t55.5 -9.5t55.5 5.5t48 20.5t36 37t14.5 70l-3 220q1 4 22.5 6t47.5 2t47.5 -2t21.5 -6v-483q0 -64 -24 -113t-64 -82.5
t-91.5 -49.5t-101 -17t-80.5 12t-57 31.5t-48 40t-57 49.5q-3 3 12.5 30t39.5 44t27 15q29 -19 40.5 -33.5t28 -33.5t39.5 -27t52 -6.5t57.5 12t48.5 28.5t33 46.5t12 98.5z" />
    <glyph glyph-name="Z" unicode="Z" horiz-adv-x="703" 
d="M431 620h-330q-2 0 -9 19.5t-8 47t3 43t6 15.5h500q39 0 38.5 -37.5t-23.5 -67.5l-384 -515h369q5 0 10 -17t5 -42.5t-3.5 -45.5t-5.5 -20h-499q-1 0 -17.5 9.5t-30 36.5t-13 47.5t391.5 526.5z" />
    <glyph glyph-name="zero" unicode="0" horiz-adv-x="621" 
d="M474 677q38 -34 58 -80.5t20 -100.5v-253q0 -54 -19 -99t-53 -77t-82 -49.5t-107 -17.5t-106 17t-80.5 49t-51.5 76.5t-18 100.5v253q0 55 18.5 101t52 78.5t81 50.5t103.5 18t102.5 -17.5t81.5 -49.5zM416 504q0 20 -6.5 41t-21 37.5t-38.5 27t-58 10.5h-1
q-121 0 -121 -116v-268q0 -113 121 -113h1q21 0 43 4.5t40 17t29.5 34.5t11.5 57v268z" />
    <glyph glyph-name="one" unicode="1" horiz-adv-x="360" 
d="M152 607l-112 -25q-29 31 -31 74t2 46l27.5 7t40.5 11.5t69 16.5t73.5 8t62.5 -8v-728q0 -5 -17.5 -7t-31 -2h-25.5t-34.5 2t-23.5 7v598z" />
    <glyph glyph-name="two" unicode="2" horiz-adv-x="619" 
d="M165 131h340q8 0 8 -65t-8 -66h-366q-56 1 -75 14.5t-22.5 31.5t-5 40t-1.5 44.5t3.5 50.5t15.5 51.5t34 44.5t59 41l223 122q32 19 41.5 42.5t8 46t-12.5 41.5t-29 31t-41.5 18t-61.5 6t-179 -35q-3 -2 -13.5 23t-14 56.5t2.5 34.5q46 16 80 23.5t72 12t77.5 4.5
t86.5 -11.5t83.5 -38t58.5 -70t22 -120.5t-45 -115.5t-98 -70.5t-112 -60.5t-98 -52t-33 -74.5z" />
    <glyph glyph-name="three" unicode="3" horiz-adv-x="549" 
d="M408 372q35 -29 54 -69.5t19 -90t-23.5 -90t-61.5 -67.5t-85 -41t-94.5 -14t-94 10t-91.5 25q-4 1 -4 22t8 44t15.5 34t11.5 11l67.5 -19.5t65 -9.5t57 5.5t48.5 17.5t36 30.5t14 44.5t-12.5 44.5t-31 30.5t-41 17t-39.5 5t-31 -0.5t-28 -1.5q-4 -1 -6 22.5t-2 39.5
t2 39.5t6 23.5q11 -1 22.5 -1.5t30.5 -0.5t44.5 6t45 19t31.5 32t12 44.5t-15 43t-38.5 28t-51 15t-49 3.5t-38.5 -3.5t-42 -8.5t-36 -9q-3 -1 -13.5 24t-15 54t-0.5 32q38 15 64 20.5t54.5 8t61.5 2.5t79 -14t83 -41t60.5 -67.5t23.5 -89t-18.5 -90t-53.5 -70.5z" />
    <glyph glyph-name="four" unicode="4" horiz-adv-x="633" 
d="M560 242q10 -2 10.5 -61t-10.5 -59h-75v-114q0 -5 -20.5 -6.5t-43.5 -1.5t-45.5 1.5t-22.5 6.5v114h-256q-28 0 -44.5 7t-25.5 19t-12 28.5t-3 35.5v97.5t7.5 33t20 36.5t27 34l107.5 130t138.5 148t65 44.5t41 9.5t35.5 -12t21 -29t9 -37.5t2 -77t-0.5 -153t-0.5 -193.5
q6 0 37 -0.5t38 -0.5zM353 563q-45 -39 -97.5 -111l-118.5 -160v-49h216v320z" />
    <glyph glyph-name="five" unicode="5" horiz-adv-x="615" 
d="M179 620v-103q-2 -40 22.5 -42.5t97.5 -11.5t107 -19t64.5 -28.5t52.5 -52.5t25.5 -97.5t-10.5 -109.5t-43 -80t-78 -54.5t-122 -20.5q-66 0 -130 15t-127 34q-9 6 4 61.5t24 54.5q81 -19 108 -26t54.5 -12t53 -5t49 5.5t43 18.5t32 32.5t12.5 52t-15.5 53t-40 32.5
t-55.5 18t-205 34q-20 4 -31.5 11.5t-17.5 18t-7.5 23t-1.5 27.5l-2 215q0 24 7 39.5t19 24.5t28 12.5t34 3.5h356q5 0 7.5 -18t3 -35t-1 -43.5t-9.5 -26.5q-78 0 -156 -0.5t-151 -0.5z" />
    <glyph glyph-name="six" unicode="6" horiz-adv-x="616" 
d="M173 461q36 8 78.5 14t99.5 6.5t104.5 -27t67.5 -71t25.5 -79t5.5 -74t-20.5 -83.5t-56.5 -77.5t-84.5 -51t-105.5 -18.5q-55 0 -101 16t-79.5 49t-52 82.5t-18.5 117.5v107v106q0 67 19 117t52 83t79 49.5t111 14.5t108.5 -12.5t64.5 -19.5q9 -61 -27 -115
q-96 25 -134.5 25.5t-60.5 -5t-39 -19t-27 -36t-10 -44.5v-33t1 -22zM174 340v-105q0 -55 29.5 -83t66.5 -28t60 4t42.5 15t32 32t12.5 69t-15.5 70.5t-36.5 33.5t-43.5 13t-147.5 -21z" />
    <glyph glyph-name="seven" unicode="7" horiz-adv-x="600" 
d="M489 744q27 0 46.5 -19.5t19.5 -46.5v-182q0 -26 -20 -52.5t-336 -296.5q-34 -28 -34 -39v-99q0 -3 -19.5 -6t-47 -3t-44 3t-16.5 8q-3 120 4.5 145t31.5 51.5t327 277.5q20 16 19 38v98h-341q-4 0 -7.5 18t-3.5 42t3 43.5t8 19.5h410z" />
    <glyph glyph-name="eight" unicode="8" horiz-adv-x="615" 
d="M521 316q30 -21 28.5 -76.5t-20.5 -99t-53 -75t-78.5 -48.5t-119.5 -15t-118 18t-70.5 44t-42.5 65t-15 77t17 77t29 58.5l23 39.5q-48 31 -56 57.5t-6.5 74t19.5 91.5t51 75t79.5 48t103 17t102 -16.5t78 -47.5t51 -71.5t19 -88.5t-18.5 -84.5t-32.5 -54t-26.5 -31.5
q13 -7 57 -34zM171 488l164 -82q12 10 36 36t31 37.5t7 44t-30 67.5t-79 35.5t-78 -19.5t-40 -43t-11 -76zM416 231q-2 2 -200 87q-5 -2 -27.5 -33.5t-23.5 -67t15 -58t46.5 -34t59 -11.5t51 8.5t40 23.5t28 35.5t11.5 49.5z" />
    <glyph glyph-name="nine" unicode="9" horiz-adv-x="614" 
d="M409 275q-30 -4 -60.5 -9t-73.5 -5t-90.5 17t-82 48t-54.5 74.5t-20 103t19 102t53.5 72.5t81.5 47t114 18t108 -18t70 -49.5t45 -70t22.5 -81.5t2.5 -283q0 -54 -18.5 -98.5t-51 -76t-77.5 -49t-99.5 -17.5t-108.5 12.5t-108 26.5q-3 1 -2 20t5 41.5t11 39.5t14 15
q98 -27 125.5 -29.5t71 -2t75.5 31t28 120.5zM409 391q2 92 -3.5 124t-17 55.5t-35 37.5t-73.5 13t-74.5 -17t-35.5 -38t-11 -67t15.5 -65.5t37 -33t48.5 -17t149 7.5z" />
    <glyph glyph-name="ampersand" unicode="&#x26;" horiz-adv-x="704" 
d="M381 626q-59 11 -96.5 8t-63 -15.5t-37.5 -31t-12.5 -46.5t22 -59t60.5 -38t59.5 -8t43.5 -1h282q5 0 8.5 -23t4 -38.5t-4 -38.5t-8.5 -23q-22 0 -44 -0.5t-44 -0.5q7 -27 12.5 -54.5t5.5 -67t-22.5 -79t-60 -66t-85.5 -39.5t-100 -13q-54 0 -102 12t-84 38.5t-57 66.5
t-21 92t20.5 97.5t43.5 89.5q-31 26 -48 63.5t-17 78.5q0 55 24.5 96.5t62.5 70t85.5 43.5t94.5 15q42 0 83 -7.5t82 -17.5q6 -68 -28 -119q-14 4 -59 15zM427 312h-223l-19 -39q-26 -80 -3 -113t60 -44t84.5 -7t84.5 33t33 66z" />
    <glyph glyph-name="question" unicode="?" horiz-adv-x="544" 
d="M408 362l-131 -101q-8 -7 -9 -17q0 -5 -16 -7t-46.5 -2t-46 3t-15.5 6q0 27 8 48t20 37t25.5 27.5t77 60.5t77.5 69t12.5 60t-37 66t-85.5 26t-97 -11.5l-95 -23.5q-7 0 -14.5 18t-12 54t-1.5 38q0 4 32.5 13.5t57.5 14t49 8t46 5.5t48.5 2t65.5 -7t79 -30t63 -61.5
t27 -69.5t4 -57t-6.5 -52.5t-18 -47.5t-27 -37.5t-34.5 -31.5zM268 125v-116q-1 -5 -20 -7t-41 -2t-40.5 2t-20.5 7v116q1 3 20 6t41 3t41 -3t20 -6z" />
    <glyph glyph-name="exclam" unicode="!" horiz-adv-x="258" 
d="M110 136q23 0 42.5 -2t19.5 -4v-124q0 -2 -19.5 -4t-42.5 -2t-43 2t-20 4v124q0 2 20 4t43 2zM188 752l-1 -305q0 -4 -6.5 -45.5t-6.5 -182.5q0 -2 -14.5 -4t-45.5 -2t-46.5 2t-15.5 4q0 107 -2 133t-4 46t-4.5 31.5t-2.5 15.5l1 307q0 2 23.5 4t50.5 2t50.5 -2t23.5 -4z
" />
    <glyph glyph-name="quotedbl" unicode="&#x22;" horiz-adv-x="440" 
d="M105 476q-2 -2 -15 2.5t-25 11t-22 15t-8 12.5l33 51q9 14 13 25t6 19q-14 1 -23.5 1.5t-10.5 6.5v121q0 2 19.5 4.5t42.5 2.5t42.5 -2.5t19.5 -4.5l1 -108q0 -17 -3.5 -32.5t-13.5 -33.5zM296 475q-1 -2 -14.5 2.5t-25 11t-21.5 15.5t-7 13l33 51q9 14 13 25t6 19
q-14 1 -24 2t-10 7v120q0 2 19.5 4.5t42.5 2.5t42.5 -2.5t19.5 -4.5v-108q0 -17 -3.5 -32.5t-11.5 -29.5z" />
    <glyph glyph-name="quotedblright" unicode="&#x201d;" horiz-adv-x="440" 
d="M105 476q-2 -2 -15 2.5t-25 11t-22 15t-8 12.5q42 65 46 76t6 19q-14 1 -23.5 1.5t-10.5 6.5v121q0 2 19.5 4.5t42.5 2.5t42.5 -2.5t19.5 -4.5l1 -108q0 -17 -3.5 -32.5t-69.5 -124.5zM296 475q-1 -2 -14.5 2.5t-25 11t-21.5 15.5t-7 13q42 65 46 76t6 19q-14 1 -24 2
t-10 7v120q0 2 19.5 4.5t42.5 2.5t42.5 -2.5t19.5 -4.5v-108q0 -17 -3.5 -32.5t-70.5 -125.5z" />
    <glyph glyph-name="quotedblleft" unicode="&#x201c;" horiz-adv-x="439" 
d="M298 745q2 2 15 -2.5t25 -11t22 -15t8 -12.5q-42 -65 -46 -76t-6 -19q14 -1 23.5 -1.5t10.5 -6.5v-121q0 -2 -19.5 -4.5t-42.5 -2.5t-42.5 2.5t-19.5 4.5l-1 108q0 17 3.5 32.5t69.5 124.5zM107 746q1 2 14.5 -2.5t25 -11t21.5 -15.5t7 -13q-42 -65 -46 -76t-6 -19
q14 -1 24 -2t10 -7v-120q0 -2 -19.5 -4.5t-42.5 -2.5t-42.5 2.5t-19.5 4.5v108q0 17 3.5 32.5t70.5 125.5z" />
    <glyph glyph-name="quoteleft" unicode="&#x2018;" horiz-adv-x="229" 
d="M96 746q2 2 15 -2.5t25 -11t22 -15t8 -12.5q-42 -65 -46 -76t-6 -19q14 -1 23.5 -1.5t10.5 -6.5v-121q0 -2 -19.5 -4.5t-42.5 -2.5t-42.5 2.5t-19.5 4.5l-1 108q0 17 3.5 36.5t69.5 120.5z" />
    <glyph glyph-name="quoteright" unicode="&#x2019;" horiz-adv-x="229" 
d="M95 476q-2 -2 -15 2.5t-25 11t-22 15t-8 12.5q41 61 45.5 74t6.5 21q-14 1 -23.5 1.5t-10.5 6.5v121q0 2 19.5 4.5t42.5 2.5t42.5 -2.5t19.5 -4.5l1 -108q0 -17 -2 -36t-71 -121z" />
    <glyph glyph-name="dollar" unicode="$" horiz-adv-x="569" 
d="M325 -14v-102q0 -4 -18.5 -6.5t-39 -2.5t-39 2.5t-18.5 6.5v110l-33.5 7t-156.5 46q-2 1 -1 20.5t8 44t15 38.5t12 13q101 -31 145 -43.5t79.5 -13.5t52.5 10.5t25 30.5t8 52.5t-10 49.5t-34 25.5t-73.5 21l-89 21t-60.5 23.5t-37 37t-25 57t-7.5 87t17.5 86.5t42.5 60.5
t66 44.5t83.5 24.5v100q1 4 19 6t39 2t39.5 -2t18.5 -6v-96q75 -10 151 -30q7 -2 7 -18.5t-7.5 -47.5t-14 -43t-10.5 -11l-83 19t-77.5 11t-72.5 -5t-56.5 -32t-21 -59t10 -56t52 -33l72 -18.5t74.5 -20t70.5 -30.5t39 -39t19 -49t5.5 -81t-17.5 -95t-43 -67.5t-59.5 -36.5
t-66 -13z" />
    <glyph glyph-name="fraction" unicode="&#x2044;" horiz-adv-x="466" 
d="M29 14q-25 16 -24 19l330 711q3 3 18 -2t30 -12t29 -15t14 -12l-330 -712q-1 -2 -21.5 3.5t-45.5 19.5z" />
    <glyph glyph-name="backslash" unicode="\" horiz-adv-x="463" 
d="M305 -128l-299 857q-1 4 17 12.5t37 15.5t40 11.5t23 0.5l298 -857q1 -3 -16 -11.5t-38 -16t-41 -12t-21 -0.5z" />
    <glyph glyph-name="at" unicode="@" horiz-adv-x="837" 
d="M682 662q19 -18 36 -41t29.5 -50t20 -56t7.5 -74.5t-10 -94.5t-49 -84q-29 -27 -64.5 -39.5t-71.5 -13.5t-56 3t-41 15t-33 33q-40 -16 -60 -22t-54.5 -6t-60 19.5t-25.5 58t10 85.5t18 70t23.5 42.5t41 32t60 12.5t60 -5t46 -12t35 -15.5t21.5 -14.5l-17 -90.5
l-14.5 -72l-11.5 -56.5q24 -8 52.5 -8t51.5 15.5t35.5 40.5t17.5 57t5 75.5t-23 82.5t-60 65t-83 38.5t-104 12.5t-113.5 -23.5t-94.5 -63.5t-60 -91.5t-21 -94.5t5 -73.5t15 -60.5t26 -57t37 -47q46 -44 106 -62t117 -18t105 9t92 23q4 2 13.5 -11.5t14 -26t5 -26
t-3.5 -14.5q-49 -17 -100.5 -26.5t-99.5 -9.5q-97 0 -176 22.5t-147 86.5q-58 54 -81.5 128.5t-23.5 147.5t25.5 139.5t75 118t122 83.5t161.5 32t156 -22.5t113 -65.5zM475 473q-18 6 -33 9.5t-35.5 3.5t-34.5 -10.5t-24.5 -56t-12 -73.5t4 -37.5t18 -9.5t26.5 3t37 11
t28 11z" />
    <glyph glyph-name="plus" unicode="+" horiz-adv-x="550" 
d="M193 332v159q0 2 20.5 4.5t44 2.5t44 -2.5t20.5 -4.5v-159h176q2 0 4 -20.5t2 -43.5t-2 -43.5t-4 -20.5h-176v-175q0 -2 -20.5 -4t-44 -2t-44 2t-20.5 4v175h-176q-2 0 -4 20.5t-2 43.5t2 43.5t4 20.5h176z" />
    <glyph glyph-name="percent" unicode="%" horiz-adv-x="961" 
d="M262 22q-12 9 -11 14l327 708q3 4 21.5 -0.5t28 -8.5t27.5 -15t16 -15l-329 -710q-3 -4 -31 2.5t-49 24.5zM901 213v-44q0 -38 -13.5 -70.5t-36.5 -56.5t-55.5 -37.5t-75.5 -13.5t-75 13.5t-55 37.5t-36.5 56.5t-13.5 70.5v44q0 38 13.5 70.5t36.5 56.5t55 37.5t75 13.5
t75.5 -13.5t55.5 -37.5t36.5 -56.5t13.5 -70.5zM639 169q0 -36 21 -58.5t60.5 -22.5t60.5 22.5t21 58.5v44q0 36 -21 58.5t-60.5 22.5t-60.5 -22.5t-21 -58.5v-44zM386 569v-44q0 -38 -13.5 -70.5t-36.5 -56.5t-55.5 -37.5t-75.5 -13.5t-75 13.5t-55 37.5t-36.5 56.5
t-13.5 70.5v44q0 38 13.5 70.5t36.5 56.5t55 37.5t75 13.5t75.5 -13.5t55.5 -37.5t36.5 -56.5t13.5 -70.5zM124 525q0 -36 21 -58.5t60.5 -22.5t60.5 22.5t21 58.5v44q0 36 -21 58.5t-60.5 22.5t-60.5 -22.5t-21 -58.5v-44z" />
    <glyph glyph-name="equal" unicode="=" horiz-adv-x="605" 
d="M520 222q9 -1 9 -50t-9 -50h-469q-9 0 -9 50.5t9 49.5h469zM520 426q9 -1 9 -50t-9 -50h-469q-9 1 -9 50.5t9 49.5h469z" />
    <glyph glyph-name="asciicircum" unicode="^" horiz-adv-x="539" 
d="M484 458q2 -5 -15.5 -18t-35.5 -23.5t-37 -19.5t-21 -5l-123 200l-123 -200q-3 -2 -21.5 6t-38.5 20t-35 24t-14 16l182 298h101z" />
    <glyph glyph-name="asterisk" unicode="*" horiz-adv-x="523" 
d="M466 566q-2 -40 -6 -40h-134l78 -109q2 -3 -8 -13t-21.5 -18t-24.5 -14.5t-15 -3.5l-91 128l-91 -128q-2 -2 -15 5t-24.5 14.5t-21.5 17t-8 12.5l77 109h-134q-2 0 -4 13.5t-2 29t2 29t4 13.5h134l-76 108q-2 3 9.5 13.5t23 18t23.5 13.5t14 4l89 -126l90 126
q2 3 13.5 -3.5t22.5 -14t23 -18t10 -13.5l-77 -108h134q4 0 5 -15t1 -30z" />
    <glyph glyph-name="bracketleft" unicode="[" horiz-adv-x="352" 
d="M164 -38h128q1 0 4.5 -16t3.5 -34.5t-3.5 -34.5t-4.5 -16h-245q-6 0 -6 6l1 995q0 4 7 5l243 1q2 0 4.5 -15t2.5 -33.5t-2 -35.5t-5 -17h-128v-805z" />
    <glyph glyph-name="bracketright" unicode="]" horiz-adv-x="352" 
d="M177 767h-128q-3 0 -5 17t-2 35.5t2.5 33.5t4.5 15l243 -1q7 -1 7 -5l1 -995q0 -6 -6 -6h-245q-1 0 -4.5 16t-3.5 34.5t3.5 34.5t4.5 16h128v805z" />
    <glyph glyph-name="underscore" unicode="_" horiz-adv-x="652" 
d="M48 -7h522q2 0 5 -20.5t3 -43.5t-3 -43.5t-5 -20.5h-522q-2 0 -5.5 20.5t-3.5 43.5t3.5 43.5t5.5 20.5z" />
    <glyph glyph-name="hyphen" unicode="-" horiz-adv-x="565" 
d="M48 372h435q2 0 5 -20.5t3 -43.5t-3 -43.5t-5 -20.5h-435q-2 0 -5 20.5t-3 43.5t3 43.5t5 20.5z" />
    <glyph glyph-name="slash" unicode="/" horiz-adv-x="423" 
d="M42 12q-36 16 -34 20l256 737q1 3 22.5 -1t40.5 -10.5t37.5 -15.5t16.5 -13l-256 -737q-1 -2 -19 0.5t-64 19.5z" />
    <glyph glyph-name="colon" unicode=":" horiz-adv-x="241" 
d="M127 461q39 -4 39 -8v-121q1 -4 -19 -6t-43 -2t-42.5 2t-19.5 6v121q1 4 20 6.5t65 1.5zM104 131q23 0 42 -2t20 -7v-118q0 -5 -19.5 -7t-42.5 -2t-42 2t-20 7v118q0 5 19.5 7t42.5 2z" />
    <glyph glyph-name="period" unicode="." horiz-adv-x="240" 
d="M166 4q0 -5 -19.5 -7t-42.5 -2t-42 2t-20 7v119q0 4 19.5 6t42.5 2t42.5 -2t19.5 -8v-117z" />
    <glyph glyph-name="semicolon" unicode=";" horiz-adv-x="231" 
d="M167 333q-2 -5 -20.5 -7t-41.5 -2t-41.5 2t-20.5 7v119q0 5 19.5 7t42.5 2t41.5 -2t20.5 -7v-119zM95 -140q-3 -3 -17 1t-25.5 10.5t-19.5 15t-8 14.5q41 52 52 95q-14 1 -23.5 2t-10.5 8v115q0 6 19.5 8t42.5 2t42.5 -2t19.5 -8v-104q-2 -65 -72 -157z" />
    <glyph glyph-name="comma" unicode="," horiz-adv-x="209" 
d="M94 -140q-2 -1 -15 3.5t-25 10.5t-21 13.5t-9 13.5q0 1 17 26.5t25 43t10 25.5q-14 1 -24 2t-10 5v120q0 4 19.5 6t42.5 2t42.5 -2t19.5 -6v-106q0 -17 -5 -39.5t-67 -117.5z" />
    <glyph glyph-name="numbersign" unicode="#" horiz-adv-x="795" 
d="M572 414l-7 -111h156q5 -1 6.5 -21t1.5 -43t-3 -43t-8 -21h-164l-9 -167q0 -4 -20.5 -6t-43.5 -2t-43.5 2t-21.5 7l9 166h-110l-12 -166q0 -5 -20.5 -7t-43.5 -2t-44.5 2t-20.5 7l12 166h-155q-6 1 -8 21t-1.5 46t3 42.5t7.5 18.5h159l7 111h-155q-7 1 -9 21t-1.5 44.5
t3.5 44t10 19.5h160l9 165q0 5 20.5 7.5t43.5 2.5t44 -2t20 -5l-9 -168h111l9 165q0 5 20.5 7.5t43.5 2.5t44 -3t20 -7l-9 -165h157q5 0 7.5 -20t2.5 -44t-2.5 -44.5t-7.5 -20.5h-158zM437 414h-104l-7 -111h104z" />
    <glyph glyph-name="degree" unicode="&#xb0;" horiz-adv-x="379" 
d="M168 444q-30 0 -55 9.5t-43 26t-28 39t-10 48.5v32q0 26 10 48.5t28 39t43 26t55 9.5h9q29 0 54 -9.5t43 -26t28.5 -39t10.5 -48.5v-32q0 -26 -10.5 -48.5t-28.5 -39t-43 -26t-54 -9.5h-9zM100 567q0 -27 18.5 -45.5t49.5 -18.5h9q30 0 48.5 18.5t18.5 45.5v32
q0 27 -18.5 45.5t-48.5 18.5h-9q-31 0 -49.5 -18.5t-18.5 -45.5v-32z" />
    <glyph glyph-name="section" unicode="&#xa7;" horiz-adv-x="635" 
d="M572 316q0 -33 -8.5 -61.5t-19.5 -51.5t-23 -39t-18 -22q3 -4 8.5 -17t7.5 -34t2 -36q0 -33 -2.5 -57.5t-6.5 -42.5t-10 -31t-15 -26.5t-23.5 -27.5t-38.5 -25.5t-59 -19t-84 -7.5t-84 4.5t-61 11.5t-46 14.5t-37.5 16.5t-21.5 15q-4 4 4 31t15 48.5t13.5 35t12.5 13.5
q17 -9 44 -21t52.5 -18.5t40 -9t28 -4t28 -2t34 0t36.5 3.5t28 11.5t17 24.5t6 42q0 12 -1 22t-5.5 18t-14.5 14.5t-45.5 15.5t-72 23t-77.5 35q-24 13 -48.5 28t-44.5 34.5t-32 46.5t-12 66q0 41 16 83.5t38 68.5q-11 23 -17.5 51.5t-6.5 64.5q0 45 11 82t36 63.5t66 41
t102 14.5q62 0 128.5 -9.5t117.5 -19.5q7 -2 4 -38.5t-14 -65.5t-17 -27q-97 20 -136 26t-62 7.5t-44.5 0t-33.5 -8.5t-19 -21.5t-7 -41.5q0 -14 0.5 -26t5 -21.5t15 -16t31.5 -8.5q40 -4 87 -20.5t90.5 -40t77.5 -49.5t45 -44t15.5 -32.5t4.5 -34.5zM257 262
q37 -21 66.5 -30t52.5 -9q19 0 31 11t19 25.5t9.5 37t-10.5 36t-38 30t-62 32.5t-63 21.5t-37 5.5t-22.5 -7.5t-19 -20.5t-11 -29t-3.5 -32q0 -8 3 -14t14 -14.5t32 -21t39 -21.5z" />
    <glyph glyph-name="sterling" unicode="&#xa3;" horiz-adv-x="620" 
d="M264 417h247q6 0 7 -34.5t-1.5 -51t-5.5 -16.5h-224q1 -19 1 -37.5t-6.5 -42.5t-16 -46.5t-21.5 -39.5t-24 -25h312q3 0 5 -19.5t2 -42.5t-2 -42.5t-5 -19.5h-489q-2 0 -4.5 19.5t-2.5 42.5t2 41.5t5 20.5l11 10.5t27 27.5t34 39t26 35.5t11 23.5t3.5 23t-1.5 32h-121
q-3 0 -5.5 16.5t-2.5 34.5t2.5 34.5t5.5 16.5h83q-11 20 -15.5 43.5t-3.5 64t7.5 67.5t22 54t44.5 49t73.5 36t109.5 14h12q12 0 41.5 -3t60.5 -8t54.5 -11.5t23.5 -14.5t-3 -27t-7.5 -38t-9 -33.5t-8.5 -13.5q-61 16 -79 20t-37.5 6t-45.5 2t-47.5 -6.5t-39 -20t-28 -34
t-10.5 -44.5t3 -38.5t7.5 -25t22.5 -38.5z" />
    <glyph glyph-name="ordfeminine" unicode="&#xaa;" horiz-adv-x="371" 
d="M151 419q-45 0 -70 16t-37 36.5t-14.5 39t-2.5 25.5t2.5 25t13.5 37t33.5 34t61.5 17l83 6q-4 24 -8.5 35.5t-25.5 12.5t-102 -16q-5 0 -9 10.5t-6 21.5t-2 21.5t5 12.5l72 13q13 2 28 3t23 1q29 0 48.5 -12t31.5 -30t17 -38.5t5 -37.5v-224l-35 -4q-2 0 -34.5 -2.5
t-77.5 -2.5zM221 584q-36 1 -50.5 1t-30.5 -2.5t-27.5 -15t-12.5 -25.5t0.5 -21.5t7 -16.5t16 -14t27.5 -7q25 0 70 3v98z" />
    <glyph glyph-name="copyright" unicode="&#xa9;" horiz-adv-x="854" 
d="M322 344q0 -38 26 -64t60.5 -27.5t54.5 3t54 14.5q4 2 9 -10.5t9 -29.5t4.5 -26t-4.5 -12q-62 -18 -119 -19.5t-86 15t-50.5 40.5t-33.5 55t-12 65v44q0 34 12 64t33 54t49.5 39.5t54.5 18.5t60 0t96 -22q3 -1 1.5 -13.5t-4.5 -25t-8 -25.5t-8 -13q-48 12 -63 14.5
t-39.5 2.5t-41 -7t-28.5 -19.5t-19 -29t-7 -34.5v-52zM426 -8h-33q-75 0 -141.5 28.5t-115.5 78t-77.5 115.5t-28.5 141v26q0 75 28.5 141.5t77.5 116t115.5 78t141.5 28.5h33q75 0 141 -28.5t115.5 -78t78 -116t28.5 -141.5v-26q0 -75 -28.5 -141t-78 -115.5t-115.5 -78
t-141 -28.5zM393 650q-56 0 -104.5 -21t-85.5 -58t-58 -86t-21 -104v-26q0 -56 21 -104.5t58 -85t85.5 -57.5t120.5 -21t121 21t85.5 57.5t57.5 85t21 104.5v26q0 55 -21 104t-57.5 86t-85.5 58t-104 21h-33z" />
    <glyph glyph-name="registered" unicode="&#xae;" horiz-adv-x="505" 
d="M244 366h-19q-40 0 -75.5 15.5t-62 42t-42 62t-15.5 76.5v13q0 40 15.5 76t42 62t62 41.5t75.5 15.5h19q40 0 76 -15.5t62.5 -41.5t42 -62t15.5 -76v-13q0 -41 -15.5 -76.5t-42 -62t-62.5 -42t-76 -15.5zM389 575q0 30 -11.5 56t-31 45.5t-46 31t-66 11.5t-65.5 -11.5
t-45.5 -31t-31 -45.5t-11.5 -56v-13q0 -30 11.5 -56.5t31 -46t45.5 -31t65.5 -11.5t66 11.5t46 31t31 46t11.5 56.5v13zM172 662q59 3 69 3q29 0 43.5 -17t14.5 -43q0 -53 -38 -61l55 -66q0 -1 -4.5 -1.5t-13 -0.5t-16 0.5t-9.5 2.5l-53 63h-12v-63q0 -2 -6 -2.5t-11.5 -0.5
t-12 0.5t-6.5 2.5v183zM208 633l1 -60q2 0 23.5 -0.5t25 4t5 11t1.5 16.5q0 30 -23 30z" />
    <glyph glyph-name="Euro" unicode="&#x20ac;" horiz-adv-x="603" 
d="M98 385q1 50 21 89t52.5 65.5t75 40.5t72.5 14t62 -3t86.5 -17t60.5 -19q2 -1 4 -15.5t-3 -33.5q-7 -28 -17 -36t-12 -7q-60 15 -101 21t-84 6t-68 -30t-27 -75h191q3 0 5 -10.5t2 -22.5t-2 -22t-5 -10h-191v-53h191q3 0 5 -10.5t2 -22.5t-2 -22.5t-5 -10.5h-191
q1 -23 10.5 -42t25.5 -32.5t36.5 -21.5t48 -8t73.5 11t92 25q3 0 9.5 -12.5t12 -30.5t8.5 -36.5t0 -19.5l-96 -29q-30 -9 -60 -11t-62 -2q-45 0 -84 16.5t-68.5 44.5t-47.5 66t-20 82h-76q-1 0 -3 10.5t-2 22.5t2 22.5t3 10.5h76v53h-76q-1 0 -3 10t-2 22t2 22.5t3 10.5h76z
" />
    <glyph glyph-name="braceleft" unicode="{" horiz-adv-x="425" 
d="M144 351q29 0 48 -10.5t30.5 -27.5t16 -37.5t4.5 -59.5v-221q0 -18 6 -28t14.5 -15.5t32.5 -5.5h58q5 0 6 -17t1 -37t-2.5 -36.5t-4.5 -16.5h-92q-25 0 -54 3t-53.5 19t-41 49.5t-16.5 94.5v263q0 10 -9.5 20.5t-40.5 10.5h-27q-3 0 -5 18.5t-2 29.5t0.5 27.5t2.5 22
t4 5.5h27q31 0 40.5 11t9.5 21v262q0 61 16 94.5t40.5 49.5t53.5 19.5t55 3.5h92q4 0 6 -19.5t2 -37t-1.5 -34.5t-6.5 -17h-62q-8 0 -16.5 -1.5t-15.5 -6.5t-12 -14.5t-5 -26.5v-220q0 -40 -5 -61t-16 -37.5t-30.5 -26.5t-47.5 -10z" />
    <glyph glyph-name="braceright" unicode="}" horiz-adv-x="426" 
d="M246 351q-30 0 -49 10.5t-30 27.5t-15.5 38.5t-4.5 43.5v235q0 17 -5 26.5t-12 14.5t-15.5 6.5t-77.5 1.5q-5 0 -6 17t-1 34.5t1 37t6 19.5h91q25 0 53.5 -3t53.5 -18.5t41.5 -49.5t16.5 -96v-262q0 -10 10 -21t40 -11h27q2 0 5 -13t3 -33t-2.5 -38.5t-5.5 -18.5h-27
q-30 0 -40 -10.5t-10 -20.5v-263q0 -64 -17.5 -98t-42.5 -49t-54 -17t-142 -2q-2 0 -3.5 5.5t-3.5 14t-2 31t2 39.5t7 17q64 0 72.5 1t17 5.5t14.5 14.5t6 28v236q0 21 4.5 42t15.5 38.5t30 28.5t49 11z" />
    <glyph glyph-name="bar" unicode="|" horiz-adv-x="208" 
d="M88 870q17 0 31.5 -2.5t14.5 -3.5v-1090q0 -1 -14.5 -3.5t-31.5 -2.5t-31.5 2.5t-14.5 3.5v1090q0 1 14.5 3.5t31.5 2.5z" />
    <glyph glyph-name="less" unicode="&#x3c;" horiz-adv-x="579" 
d="M104 268l399 -188q6 -3 2.5 -19t-10 -30t-16.5 -26.5t-18 -10.5l-450 211q-2 1 -5.5 17.5t-3.5 50.5t2.5 45t6.5 13l451 211q7 2 17 -10.5t16.5 -26.5t10 -29.5t-4.5 -22.5z" />
    <glyph glyph-name="greater" unicode="&#x3e;" horiz-adv-x="580" 
d="M441 268l-398 186q-5 4 -2.5 20t9 30t16.5 26.5t18 10.5l450 -210q5 -1 7.5 -16.5t3 -45t-3 -46.5t-7.5 -18l-450 -211q-8 -2 -17 11t-15.5 27t-10 30t2.5 19z" />
    <glyph glyph-name="edieresis" unicode="&#xeb;" horiz-adv-x="581" 
d="M226 705v-94q0 -6 -32 -8t-60.5 0t-29.5 8v94q0 3 19 5.5t41.5 2.5t41.5 -2.5t20 -5.5zM456 705v-94q0 -6 -32 -8t-60.5 0t-29.5 8v94q0 3 19 5.5t41.5 2.5t41.5 -2.5t20 -5.5zM164 181q12 -35 38 -59.5t57.5 -27t64.5 2t110 28.5q4 1 11 -15t11 -32.5t6 -35.5t-2 -20
q-60 -20 -113.5 -25.5t-71.5 -5.5q-57 0 -102 20.5t-76 55t-48.5 78.5t-20.5 110.5t17 119t52.5 89.5t78 58.5t114 21.5t110.5 -22.5t70.5 -60t43 -85.5t14.5 -100q0 -8 -6 -12zM407 350q-2 10 -10.5 26.5t-23 29.5t-35 21.5t-56.5 7.5t-62 -13.5t-43.5 -32t-26 -45.5
t-2.5 -57z" />
    <glyph glyph-name="odieresis" unicode="&#xf6;" horiz-adv-x="590" 
d="M226 705v-94q0 -6 -32 -8t-60.5 0t-29.5 8v94q0 3 19 5.5t41.5 2.5t41.5 -2.5t20 -5.5zM456 705v-94q0 -6 -32 -8t-60.5 0t-29.5 8v94q0 3 19 5.5t41.5 2.5t41.5 -2.5t20 -5.5zM31 237v62q0 52 18 97t50.5 78t76.5 51t104 18.5t104 -18t76.5 -51.5t50.5 -78t18 -97v-62
q0 -53 -18 -97.5t-50.5 -77.5t-76.5 -51.5t-104 -18.5t-104 18.5t-76.5 51.5t-50.5 77.5t-18 97.5zM152 226q0 -27 8.5 -50.5t24.5 -41t38 -27t71 -9t81 36.5t32 91v73q0 27 -7 53t-20.5 46t-37 32.5t-60.5 12.5t-61.5 -12.5t-39.5 -32t-22 -46t-7 -53.5v-73z" />
    <glyph glyph-name="adieresis" unicode="&#xe4;" horiz-adv-x="572" 
d="M226 705v-94q0 -6 -32 -8t-60.5 0t-29.5 8v94q0 3 19 5.5t41.5 2.5t41.5 -2.5t20 -5.5zM456 705v-94q0 -6 -32 -8t-60.5 0t-29.5 8v94q0 3 19 5.5t41.5 2.5t41.5 -2.5t20 -5.5zM520 6v310q0 18 -1 38.5t-5 42.5t-11.5 42.5t-20.5 38.5q-20 26 -44 39t-46 19q-26 7 -51 7
q-30 0 -63.5 -2.5t-65.5 -7t-61 -11.5t-50 -15q-4 -2 -2.5 -17.5t5 -34t8.5 -33.5t8 -15q20 2 48 9t59 13t61.5 8.5t54.5 -4t39 -24.5t15 -53l-38 -2q-17 -1 -35.5 -2.5t-35.5 -2.5q-48 -3 -93.5 -12t-81.5 -29t-57.5 -53.5t-21.5 -87.5q0 -8 1 -21.5t5.5 -30t14 -34.5
t26.5 -36q19 -19 39 -29.5t42 -16t45 -6.5t47 -1q67 0 138.5 4.5t127.5 9.5zM400 112q0 -4 -2 -7.5t-7 -4.5q-16 -2 -36.5 -3l-41.5 -2t-40.5 -1.5t-32.5 -0.5q-11 0 -26 1t-28 7t-22 19.5t-9 37.5q0 23 10.5 40.5t36.5 26.5q12 4 29 7t34 5t34 3t29 1q14 0 27 0.5t23 0.5
q11 0 21 1v-59.5t0.5 -38t0.5 -22v-11.5z" />
    <glyph glyph-name="udieresis" unicode="&#xfc;" horiz-adv-x="591" 
d="M226 705v-94q0 -6 -32 -8t-60.5 0t-29.5 8v94q0 3 19 5.5t41.5 2.5t41.5 -2.5t20 -5.5zM456 705v-94q0 -6 -32 -8t-60.5 0t-29.5 8v94q0 3 19 5.5t41.5 2.5t41.5 -2.5t20 -5.5zM401 108v418q0 3 20 6t43 3q59 0 59 -9v-518l-52 -6q-31 -3 -55.5 -5t-56.5 -3.5t-68 -1.5
q-128 -1 -190.5 56t-65.5 168v310q0 3 19.5 6t42.5 3q60 -2 60 -9v-305q1 -26 7 -48t21 -38t40.5 -25t51.5 -9t43 0.5t81 6.5z" />
    <glyph glyph-name="agrave" unicode="&#xe0;" horiz-adv-x="559" 
d="M327 579l-173 91q-4 4 2 22t14.5 32t19.5 24.5t16 7.5l164 -106q2 -2 -2 -16t-12 -27t-16.5 -21.5t-12.5 -6.5zM514 6v310q0 18 -1 38.5t-5 42.5t-11.5 42.5t-20.5 38.5q-20 26 -44 39t-46 19q-26 7 -51 7q-30 0 -63.5 -2.5t-65.5 -7t-61 -11.5t-50 -15q-4 -2 -2.5 -17.5
t5 -34t8.5 -33.5t8 -15q20 2 48 9t59 13t61.5 8.5t54.5 -4t39 -24.5t15 -53l-38 -2q-17 -1 -35.5 -2.5t-35.5 -2.5q-48 -3 -93.5 -12t-81.5 -29t-57.5 -53.5t-21.5 -87.5q0 -8 1 -21.5t5.5 -30t14 -34.5t26.5 -36q19 -19 39 -29.5t42 -16t45 -6.5t47 -1q67 0 138.5 4.5
t127.5 9.5zM394 112q0 -4 -2 -7.5t-7 -4.5q-16 -2 -36.5 -3l-41.5 -2t-40.5 -1.5t-32.5 -0.5q-11 0 -26 1t-28 7t-22 19.5t-9 37.5q0 23 10.5 40.5t36.5 26.5q12 4 29 7t34 5t34 3t29 1q14 0 27 0.5t23 0.5q11 0 21 1v-59.5t0.5 -38t0.5 -22v-11.5z" />
    <glyph glyph-name="egrave" unicode="&#xe8;" horiz-adv-x="571" 
d="M301 579l-173 91q-4 4 2 22t14.5 32t19.5 24.5t16 7.5l164 -106q2 -2 -2 -16t-12 -27t-16.5 -21.5t-12.5 -6.5zM161 181q12 -35 38 -59.5t57.5 -27t64.5 2t110 28.5q4 1 11 -15t11 -32.5t6 -35.5t-2 -20q-60 -20 -113.5 -25.5t-71.5 -5.5q-57 0 -102 20.5t-76 55
t-48.5 78.5t-20.5 110.5t17 119t52.5 89.5t78 58.5t114 21.5t110.5 -22.5t70.5 -60t43 -85.5t14.5 -100q0 -8 -6 -12zM404 350q-2 10 -10.5 26.5t-23 29.5t-35 21.5t-56.5 7.5t-62 -13.5t-43.5 -32t-26 -45.5t-2.5 -57z" />
    <glyph glyph-name="igrave" unicode="&#xec;" horiz-adv-x="290" 
d="M176 579l-173 91q-4 4 2 22t14.5 32t19.5 24.5t16 7.5l164 -106q2 -2 -2 -16t-12 -27t-16.5 -21.5t-12.5 -6.5zM200 528l-2 -522q0 -2 -23 -4t-40.5 -2t-37.5 2t-20 4v264v123t1 135q0 2 19 4.5t41.5 2.5t42 -2.5t19.5 -4.5z" />
    <glyph glyph-name="ograve" unicode="&#xf2;" 
d="M307 579l-173 91q-4 4 2 22t14.5 32t19.5 24.5t16 7.5l164 -106q2 -2 -2 -16t-12 -27t-16.5 -21.5t-12.5 -6.5zM27 237v62q0 52 18 97t50.5 78t76.5 51t104 18.5t104 -18t76.5 -51.5t50.5 -78t18 -97v-62q0 -53 -18 -97.5t-50.5 -77.5t-76.5 -51.5t-104 -18.5t-104 18.5
t-76.5 51.5t-50.5 77.5t-18 97.5zM148 226q0 -27 8.5 -50.5t24.5 -41t38 -27t71 -9t81 36.5t32 91v73q0 27 -7 53t-20.5 46t-37 32.5t-60.5 12.5t-61.5 -12.5t-39.5 -32t-22 -46t-7 -53.5v-73z" />
    <glyph glyph-name="idieresis" unicode="&#xef;" horiz-adv-x="421" 
d="M139 705v-94q0 -9 -60.5 -9t-61.5 9v94q0 3 19 5.5t41.5 2.5t41.5 -2.5t20 -5.5zM369 705v-94q0 -9 -60.5 -9t-61.5 9v94q0 3 19 5.5t41.5 2.5t41.5 -2.5t20 -5.5zM261 528l-2 -522q0 -2 -23 -4t-40.5 -2t-37.5 2t-20 4v264v123t1 135q0 2 19 4.5t41.5 2.5t42 -2.5
t19.5 -4.5z" />
    <glyph glyph-name="ydieresis" unicode="&#xff;" horiz-adv-x="653" 
d="M256 705v-94q0 -6 -32 -8t-60.5 0t-29.5 8v94q0 3 19 5.5t41.5 2.5t41.5 -2.5t20 -5.5zM486 705v-94q0 -6 -32 -8t-60.5 0t-29.5 8v94q0 3 19 5.5t41.5 2.5t41.5 -2.5t20 -5.5zM356 99l121 430q0 2 20 4t43 2t42.5 -2t19.5 -4q-156 -580 -167.5 -613t-30 -62t-48 -48.5
t-62.5 -26.5t-66.5 -7.5t-58 8.5t-41.5 22.5t-30.5 30.5t-49.5 48q-3 2 12 27t36.5 42.5t23.5 15.5q36 -26 51.5 -49t29.5 -33t33 -10.5t33 4t24.5 16t16.5 27.5t6.5 33.5t0.5 32.5l-49 16q-11 5 -18 12t-15 25l-212 487q-1 2 20 5t44.5 3t43.5 -2t21 -4l185 -420
q8 -8 21 -10z" />
    <glyph glyph-name="eacute" unicode="&#xe9;" horiz-adv-x="570" 
d="M219 579q-4 -2 -12.5 6.5t-16.5 21.5t-12 27t-2 16l164 106q5 3 16 -7.5t19.5 -24.5t14.5 -32t2 -22zM157 181q12 -35 38 -59.5t57.5 -27t64.5 2t110 28.5q4 1 11 -15t11 -32.5t6 -35.5t-2 -20q-60 -20 -113.5 -25.5t-71.5 -5.5q-57 0 -102 20.5t-76 55t-48.5 78.5
t-20.5 110.5t17 119t52.5 89.5t78 58.5t114 21.5t110.5 -22.5t70.5 -60t43 -85.5t14.5 -100q0 -8 -6 -12zM400 350q-2 10 -10.5 26.5t-23 29.5t-35 21.5t-56.5 7.5t-62 -13.5t-43.5 -32t-26 -45.5t-2.5 -57z" />
    <glyph glyph-name="aacute" unicode="&#xe1;" horiz-adv-x="558" 
d="M229 579q-4 -2 -12.5 6.5t-16.5 21.5t-12 27t-2 16l164 106q5 3 16 -7.5t19.5 -24.5t14.5 -32t2 -22zM515 6v310q0 18 -1 38.5t-5 42.5t-11.5 42.5t-20.5 38.5q-20 26 -44 39t-46 19q-26 7 -51 7q-30 0 -63.5 -2.5t-65.5 -7t-61 -11.5t-50 -15q-4 -2 -2.5 -17.5t5 -34
t8.5 -33.5t8 -15q20 2 48 9t59 13t61.5 8.5t54.5 -4t39 -24.5t15 -53l-38 -2q-17 -1 -35.5 -2.5t-35.5 -2.5q-48 -3 -93.5 -12t-81.5 -29t-57.5 -53.5t-21.5 -87.5q0 -8 1 -21.5t5.5 -30t14 -34.5t26.5 -36q19 -19 39 -29.5t42 -16t45 -6.5t47 -1q67 0 138.5 4.5t127.5 9.5z
M395 112q0 -4 -2 -7.5t-7 -4.5q-16 -2 -36.5 -3l-41.5 -2t-40.5 -1.5t-32.5 -0.5q-11 0 -26 1t-28 7t-22 19.5t-9 37.5q0 23 10.5 40.5t36.5 26.5q12 4 29 7t34 5t34 3t29 1q14 0 27 0.5t23 0.5q11 0 21 1v-59.5t0.5 -38t0.5 -22v-11.5z" />
    <glyph glyph-name="oacute" unicode="&#xf3;" 
d="M229 579q-4 -2 -12.5 6.5t-16.5 21.5t-12 27t-2 16l164 106q5 3 16 -7.5t19.5 -24.5t14.5 -32t2 -22zM23 237v62q0 52 18 97t50.5 78t76.5 51t104 18.5t104 -18t76.5 -51.5t50.5 -78t18 -97v-62q0 -53 -18 -97.5t-50.5 -77.5t-76.5 -51.5t-104 -18.5t-104 18.5
t-76.5 51.5t-50.5 77.5t-18 97.5zM144 226q0 -27 8.5 -50.5t24.5 -41t38 -27t71 -9t81 36.5t32 91v73q0 27 -7 53t-20.5 46t-37 32.5t-60.5 12.5t-61.5 -12.5t-39.5 -32t-22 -46t-7 -53.5v-73z" />
    <glyph glyph-name="uacute" unicode="&#xfa;" 
d="M239 579q-4 -2 -12.5 6.5t-16.5 21.5t-12 27t-2 16l164 106q5 3 16 -7.5t19.5 -24.5t14.5 -32t2 -22zM393 108v418q0 3 20 6t43 3q59 0 59 -9v-518l-52 -6q-31 -3 -55.5 -5t-56.5 -3.5t-68 -1.5q-128 -1 -190.5 56t-65.5 168v310q0 3 19.5 6t42.5 3q60 -2 60 -9v-305
q1 -26 7 -48t21 -38t40.5 -25t51.5 -9t43 0.5t81 6.5z" />
    <glyph glyph-name="ugrave" unicode="&#xf9;" 
d="M321 579l-173 91q-4 4 2 22t14.5 32t19.5 24.5t16 7.5l164 -106q2 -2 -2 -16t-12 -27t-16.5 -21.5t-12.5 -6.5zM397 108v418q0 3 20 6t43 3q59 0 59 -9v-518l-52 -6q-31 -3 -55.5 -5t-56.5 -3.5t-68 -1.5q-128 -1 -190.5 56t-65.5 168v310q0 3 19.5 6t42.5 3q60 -2 60 -9
v-305q1 -26 7 -48t21 -38t40.5 -25t51.5 -9t43 0.5t81 6.5z" />
    <glyph glyph-name="yacute" unicode="&#xfd;" horiz-adv-x="650" 
d="M289 579q-4 -2 -12.5 6.5t-16.5 21.5t-12 27t-2 16l164 106q5 3 16 -7.5t19.5 -24.5t14.5 -32t2 -22zM354 99l121 430q0 2 20 4t43 2t42.5 -2t19.5 -4q-156 -580 -167.5 -613t-30 -62t-48 -48.5t-62.5 -26.5t-66.5 -7.5t-58 8.5t-41.5 22.5t-30.5 30.5t-49.5 48
q-3 2 12 27t36.5 42.5t23.5 15.5q36 -26 51.5 -49t29.5 -33t33 -10.5t33 4t24.5 16t16.5 27.5t6.5 33.5t0.5 32.5l-49 16q-11 5 -18 12t-15 25l-212 487q-1 2 20 5t44.5 3t43.5 -2t21 -4l185 -420q8 -8 21 -10z" />
    <glyph glyph-name="breve" unicode="&#x2d8;" horiz-adv-x="399" 
d="M336 713q-16 -45 -57 -73t-97 -28t-96.5 26.5t-57.5 74.5q-1 3 9 10.5t20.5 13t24 8t13.5 0.5q10 -25 31.5 -44t56 -19t56.5 19.5t29 44.5q0 2 3 2t12 -3t31.5 -15t21.5 -17z" />
    <glyph glyph-name="Adieresis" unicode="&#xc4;" horiz-adv-x="669" 
d="M253 882v-94q0 -6 -32 -8t-60.5 0t-29.5 8v94q0 3 19 5.5t41.5 2.5t41.5 -2.5t20 -5.5zM483 882v-94q0 -6 -32 -8t-60.5 0t-29.5 8v94q0 3 19 5.5t41.5 2.5t41.5 -2.5t20 -5.5zM617 34q0 -3 -15 -10.5t-35.5 -14.5t-41.5 -12t-31 -5q-4 0 -4 1l-53 163
q-55 -20 -126.5 -20t-135.5 19l-37 -162q0 -2 -33.5 3t-58.5 15.5t-24 13.5q3 19 12.5 62t30 124t85 268.5t87 217.5t49.5 39.5t64.5 8t38.5 -4.5zM309 560q-17 -39 -33 -82t-29.5 -83.5l-24 -74t-17.5 -53.5q98 -31 196 3z" />
    <glyph glyph-name="Odieresis" unicode="&#xd6;" horiz-adv-x="651" 
d="M253 882v-94q0 -6 -32 -8t-60.5 0t-29.5 8v94q0 3 19 5.5t41.5 2.5t41.5 -2.5t20 -5.5zM483 882v-94q0 -6 -32 -8t-60.5 0t-29.5 8v94q0 3 19 5.5t41.5 2.5t41.5 -2.5t20 -5.5zM587 251q0 -57 -22 -105t-59.5 -82t-88 -53t-108 -19t-108 19t-88 53t-59.5 82t-22 105v248
q0 57 22 104.5t59.5 81t88 52t108 18.5t108 -18.5t88 -52t59.5 -81t22 -104.5v-248zM453 494q0 29 -11 55t-30.5 45.5t-45.5 30.5t-56.5 11t-56.5 -11t-45.5 -30.5t-30.5 -45.5t-11 -55v-236q0 -29 11 -55t30.5 -45.5t45.5 -30.5t56.5 -11t56.5 11t45.5 30.5t30.5 45.5
t11 55v236z" />
    <glyph glyph-name="Udieresis" unicode="&#xdc;" horiz-adv-x="681" 
d="M303 882v-94q0 -6 -32 -8t-60.5 0t-29.5 8v94q0 3 19 5.5t41.5 2.5t41.5 -2.5t20 -5.5zM533 882v-94q0 -6 -32 -8t-60.5 0t-29.5 8v94q0 3 19 5.5t41.5 2.5t41.5 -2.5t20 -5.5zM474 132l2 605q0 4 19.5 6t47.5 2t47.5 -2t19.5 -6v-724q-150 -14 -187 -16.5t-68.5 -3.5
t-46.5 -1q-41 0 -91 16t-92.5 53t-71 95t-28.5 139.5t13.5 134t36 92t47.5 67.5t54 64.5t58 91.5q1 2 35.5 -6.5t57.5 -25t22 -19.5q-14 -34 -39.5 -71.5t-55 -69.5t-56.5 -76.5t-34.5 -90t-6 -89t16.5 -77t38 -56.5t60 -35.5t82.5 -10t119.5 13.5z" />
    <glyph glyph-name="Idieresis" unicode="&#xcf;" horiz-adv-x="414" 
d="M167 882v-94q0 -6 -32 -8t-60.5 0t-29.5 8v94q0 3 19 5.5t41.5 2.5t41.5 -2.5t20 -5.5zM397 882v-94q0 -6 -32 -8t-60.5 0t-29.5 8v94q0 3 19 5.5t41.5 2.5t41.5 -2.5t20 -5.5zM290 8q0 -2 -20 -5t-47.5 -3t-47 3t-19.5 5v729q0 2 19.5 5t47 3t47.5 -3t20 -5v-729z" />
    <glyph glyph-name="Ecircumflex" unicode="&#xca;" horiz-adv-x="635" 
d="M199 764q-1 -1 -10 7.5t-17.5 19.5t-16.5 24t-6 15l146 109q11 8 20 8q8 0 18 -8l147 -110q1 -1 1 -3q0 -5 -7.5 -17.5t-15.5 -22t-16.5 -17.5t-10.5 -7l-117 77zM577 63q-11 -7 -98 -34t-112 -31q-35 -6 -77 -6q-44 0 -83.5 10t-72.5 29.5t-58 49t-37 60t-12 72.5
t24.5 85t62.5 76q-34 26 -59.5 69.5t-25.5 95t22.5 91.5t61.5 70t89.5 42.5t98.5 12.5q31 0 82.5 -8t174.5 -40q3 -1 3.5 -10.5t-3 -29t-8.5 -38t-11.5 -32t-9.5 -12.5q-138 43 -192 46.5t-81 -2t-46 -15.5t-32 -27t-13 -40.5t11 -41.5t28 -31.5t38 -22t41 -9.5h197
q2 0 6.5 -28.5t0 -60t-6.5 -31.5h-192q-25 0 -47 -8.5t-39 -23t-27 -33.5t-10 -43.5t13 -44t32.5 -31.5t43.5 -17.5t59.5 -5t228.5 59.5h1.5t11.5 -14t16 -33q7 -23 8 -44t-2 -21z" />
    <glyph glyph-name="Eacute" unicode="&#xc9;" horiz-adv-x="629" 
d="M285 770q-4 -3 -15 5.5t-22 19.5t-19.5 21.5t-6.5 12.5l122 111q3 2 16.5 -7.5t24 -22t19 -27.5t5.5 -18zM575 63q-11 -7 -98 -34t-112 -31q-35 -6 -77 -6q-44 0 -83.5 10t-72.5 29.5t-58 49t-37 60t-12 72.5t24.5 85t62.5 76q-34 26 -59.5 69.5t-25.5 95t22.5 91.5
t61.5 70t89.5 42.5t98.5 12.5q31 0 82.5 -8t174.5 -40q3 -1 3.5 -10.5t-3 -29t-8.5 -38t-11.5 -32t-9.5 -12.5q-138 43 -192 46.5t-81 -2t-46 -15.5t-32 -27t-13 -40.5t11 -41.5t28 -31.5t38 -22t41 -9.5h197q2 0 6.5 -28.5t0 -60t-6.5 -31.5h-192q-25 0 -47 -8.5t-39 -23
t-27 -33.5t-10 -43.5t13 -44t32.5 -31.5t43.5 -17.5t59.5 -5t228.5 59.5h1.5t11.5 -14t16 -33q7 -23 8 -44t-2 -21z" />
    <glyph glyph-name="Egrave" unicode="&#xc8;" horiz-adv-x="628" 
d="M291 764l-124 95q-3 3 5.5 18t19 27.5t24 22t16.5 7.5l122 -111q2 -2 -6.5 -12.5t-19.5 -21.5t-22 -19.5t-15 -5.5zM577 63q-11 -7 -98 -34t-112 -31q-35 -6 -77 -6q-44 0 -83.5 10t-72.5 29.5t-58 49t-37 60t-12 72.5t24.5 85t62.5 76q-34 26 -59.5 69.5t-25.5 95
t22.5 91.5t61.5 70t89.5 42.5t98.5 12.5q31 0 82.5 -8t174.5 -40q3 -1 3.5 -10.5t-3 -29t-8.5 -38t-11.5 -32t-9.5 -12.5q-138 43 -192 46.5t-81 -2t-46 -15.5t-32 -27t-13 -40.5t11 -41.5t28 -31.5t38 -22t41 -9.5h197q2 0 6.5 -28.5t0 -60t-6.5 -31.5h-192q-25 0 -47 -8.5
t-39 -23t-27 -33.5t-10 -43.5t13 -44t32.5 -31.5t43.5 -17.5t59.5 -5t228.5 59.5h1.5t11.5 -14t16 -33q7 -23 8 -44t-2 -21z" />
    <glyph glyph-name="Aacute" unicode="&#xc1;" horiz-adv-x="664" 
d="M325 763q-4 -3 -15 5.5t-22 19.5t-19.5 21.5t-6.5 12.5l122 111q3 2 16.5 -7.5t24 -22t19 -27.5t5.5 -18zM615 34q0 -3 -15 -10.5t-35.5 -14.5t-41.5 -12t-31 -5q-4 0 -4 1l-53 163q-55 -20 -126.5 -20t-135.5 19l-37 -162q0 -2 -33.5 3t-58.5 15.5t-24 13.5
q3 19 12.5 62t30 124t85 268.5t87 217.5t49.5 39.5t64.5 8t38.5 -4.5zM307 560q-17 -39 -33 -82t-29.5 -83.5l-24 -74t-17.5 -53.5q98 -31 196 3z" />
    <glyph glyph-name="Iacute" unicode="&#xcd;" horiz-adv-x="283" 
d="M119 770q-4 -3 -15 5.5t-22 19.5t-19.5 21.5t-6.5 12.5l122 111q3 2 16.5 -7.5t24 -22t19 -27.5t5.5 -18zM213 8q0 -2 -20 -5t-47.5 -3t-47 3t-19.5 5v729q0 2 19.5 5t47 3t47.5 -3t20 -5v-729z" />
    <glyph glyph-name="Oacute" unicode="&#xd3;" horiz-adv-x="642" 
d="M293 770q-4 -3 -15 5.5t-22 19.5t-19.5 21.5t-6.5 12.5l122 111q3 2 16.5 -7.5t24 -22t19 -27.5t5.5 -18zM582 251q0 -57 -22 -105t-59.5 -82t-88 -53t-108 -19t-108 19t-88 53t-59.5 82t-22 105v248q0 57 22 104.5t59.5 81t88 52t108 18.5t108 -18.5t88 -52t59.5 -81
t22 -104.5v-248zM448 494q0 29 -11 55t-30.5 45.5t-45.5 30.5t-56.5 11t-56.5 -11t-45.5 -30.5t-30.5 -45.5t-11 -55v-236q0 -29 11 -55t30.5 -45.5t45.5 -30.5t56.5 -11t56.5 11t45.5 30.5t30.5 45.5t11 55v236z" />
    <glyph glyph-name="Uacute" unicode="&#xda;" horiz-adv-x="673" 
d="M365 763q-4 -3 -15 5.5t-22 19.5t-19.5 21.5t-6.5 12.5l122 111q3 2 16.5 -7.5t24 -22t19 -27.5t5.5 -18zM469 132l2 605q0 4 19.5 6t47.5 2t47.5 -2t19.5 -6v-724q-150 -14 -187 -16.5t-68.5 -3.5t-46.5 -1q-41 0 -91 16t-92.5 53t-71 95t-28.5 139.5t13.5 134t36 92
t47.5 67.5t54 64.5t58 91.5q1 2 35.5 -6.5t57.5 -25t22 -19.5q-14 -34 -39.5 -71.5t-55 -69.5t-56.5 -76.5t-34.5 -90t-6 -89t16.5 -77t38 -56.5t60 -35.5t82.5 -10t119.5 13.5z" />
    <glyph glyph-name="Yacute" unicode="&#xdd;" horiz-adv-x="636" 
d="M285 764q-4 -3 -15 5.5t-22 19.5t-19.5 21.5t-6.5 12.5l122 111q3 2 16.5 -7.5t24 -22t19 -27.5t5.5 -18zM440 299q-32 -19 -73 -28.5t-86 -9.5t-94.5 16t-86 45t-54.5 72.5t-19 127.5v214q0 5 34 7.5t66 0t32 -6.5l-1 -211q0 -71 21.5 -97t48 -35.5t55.5 -9.5t55.5 5.5
t48 20.5t36 37t14.5 70l-3 220q1 4 22.5 6t47.5 2t47.5 -2t21.5 -6v-483q0 -64 -24 -113t-64 -82.5t-91.5 -49.5t-101 -17t-80.5 12t-57 31.5t-48 40t-57 49.5q-3 3 12.5 30t39.5 44t27 15q29 -19 40.5 -33.5t28 -33.5t39.5 -27t52 -6.5t57.5 12t48.5 28.5t33 46.5t12 98.5z
" />
    <glyph glyph-name="Agrave" unicode="&#xc0;" horiz-adv-x="665" 
d="M287 757l-124 95q-3 3 5.5 18t19 27.5t24 22t16.5 7.5l122 -111q2 -2 -6.5 -12.5t-19.5 -21.5t-22 -19.5t-15 -5.5zM617 34q0 -3 -15 -10.5t-35.5 -14.5t-41.5 -12t-31 -5q-4 0 -4 1l-53 163q-55 -20 -126.5 -20t-135.5 19l-37 -162q0 -2 -33.5 3t-58.5 15.5t-24 13.5
q3 19 12.5 62t30 124t85 268.5t87 217.5t49.5 39.5t64.5 8t38.5 -4.5zM309 560q-17 -39 -33 -82t-29.5 -83.5l-24 -74t-17.5 -53.5q98 -31 196 3z" />
    <glyph glyph-name="Igrave" unicode="&#xcc;" horiz-adv-x="290" 
d="M163 760l-124 95q-3 3 5.5 18t19 27.5t24 22t16.5 7.5l122 -111q2 -2 -6.5 -12.5t-19.5 -21.5t-22 -19.5t-15 -5.5zM221 8q0 -2 -20 -5t-47.5 -3t-47 3t-19.5 5v729q0 2 19.5 5t47 3t47.5 -3t20 -5v-729z" />
    <glyph glyph-name="Ograve" unicode="&#xd2;" horiz-adv-x="641" 
d="M307 767l-124 95q-3 3 5.5 18t19 27.5t24 22t16.5 7.5l122 -111q2 -2 -6.5 -12.5t-19.5 -21.5t-22 -19.5t-15 -5.5zM583 251q0 -57 -22 -105t-59.5 -82t-88 -53t-108 -19t-108 19t-88 53t-59.5 82t-22 105v248q0 57 22 104.5t59.5 81t88 52t108 18.5t108 -18.5t88 -52
t59.5 -81t22 -104.5v-248zM449 494q0 29 -11 55t-30.5 45.5t-45.5 30.5t-56.5 11t-56.5 -11t-45.5 -30.5t-30.5 -45.5t-11 -55v-236q0 -29 11 -55t30.5 -45.5t45.5 -30.5t56.5 -11t56.5 11t45.5 30.5t30.5 45.5t11 55v236z" />
    <glyph glyph-name="Ugrave" unicode="&#xd9;" horiz-adv-x="673" 
d="M357 763l-124 95q-3 3 5.5 18t19 27.5t24 22t16.5 7.5l122 -111q2 -2 -6.5 -12.5t-19.5 -21.5t-22 -19.5t-15 -5.5zM473 132l2 605q0 4 19.5 6t47.5 2t47.5 -2t19.5 -6v-724q-150 -14 -187 -16.5t-68.5 -3.5t-46.5 -1q-41 0 -91 16t-92.5 53t-71 95t-28.5 139.5t13.5 134
t36 92t47.5 67.5t54 64.5t58 91.5q1 2 35.5 -6.5t57.5 -25t22 -19.5q-14 -34 -39.5 -71.5t-55 -69.5t-56.5 -76.5t-34.5 -90t-6 -89t16.5 -77t38 -56.5t60 -35.5t82.5 -10t119.5 13.5z" />
    <glyph glyph-name="iacute" unicode="&#xed;" horiz-adv-x="293" 
d="M79 579q-4 -2 -12.5 6.5t-16.5 21.5t-12 27t-2 16l164 106q5 3 16 -7.5t19.5 -24.5t14.5 -32t2 -22zM211 528l-2 -522q0 -2 -23 -4t-40.5 -2t-37.5 2t-20 4v264v123t1 135q0 2 19 4.5t41.5 2.5t42 -2.5t19.5 -4.5z" />
    <glyph glyph-name="g" unicode="g" horiz-adv-x="606" 
d="M155 -34q2 -2 16 -14t29 -30q24 -29 49 -39t52 -10t42 6t26.5 18t18.5 30.5t7.5 33.5t-1.5 48q-53 -13 -78 -15.5t-59.5 -2.5t-78 13t-77 43.5t-54 82t-20.5 122t19.5 122.5t53.5 90t79.5 59t97.5 20q34 0 108.5 -4t129.5 -10v-572q-2 -64 -18 -89.5t-39.5 -44.5
t-49 -30.5t-50 -16.5t-72.5 -5.5t-72.5 8.5t-43.5 22.5t-34 29t-54 50.5q-3 4 7.5 21t22 30.5t26 25t17.5 8.5zM394 432q-34 2 -64.5 2.5t-60 -0.5t-52.5 -18t-38.5 -44.5t-24 -57.5t-6 -81t30.5 -88.5t72 -40.5t78.5 3.5t64.5 17.5v307z" />
    <glyph glyph-name="a" unicode="a" horiz-adv-x="576" 
d="M486 6q-56 -5 -127.5 -9.5t-138.5 -4.5q-24 0 -47 1t-45 6.5t-42 16t-39 29.5q-17 18 -26.5 36t-14 34.5t-5.5 30t-1 21.5q0 54 21.5 87.5t57.5 53.5t81.5 29t93.5 12q17 1 35.5 2.5t35.5 2.5l38 2q0 35 -15 53t-39 24.5t-54.5 4t-61.5 -8.5t-59 -13t-48 -9q-3 0 -8 15
t-8.5 33.5t-5 34t2.5 17.5q21 8 50 15t61 11.5t65.5 7t63.5 2.5q25 0 51 -7q22 -6 46 -19t44 -39q13 -18 20.5 -38.5t11.5 -42.5t5 -42.5t1 -38.5v-310zM366 112v11.5t-0.5 22t-0.5 38v59.5q-10 -1 -21 -1q-10 0 -23 -0.5t-27 -0.5q-12 0 -29 -1t-34 -3t-34 -5t-29 -7
q-26 -9 -36.5 -26.5t-10.5 -40.5q0 -24 9 -37.5t22 -19.5t28 -7t26 -1q13 0 32.5 0.5t40.5 1.5l41.5 2t36.5 3q5 1 7 4.5t2 7.5z" />
    <glyph glyph-name="b" unicode="b" horiz-adv-x="577" 
d="M163 523q60 16 83 18t60 2.5t86 -15t83.5 -53.5t44.5 -96t10 -124.5t-20 -111.5t-55 -78.5t-81.5 -53t-90.5 -19.5t-75.5 1t-56 2t-39.5 2t-70 6v759q0 2 19 5t41.5 3t41.5 -3t19 -5v-239zM163 101q34 -2 60 -3t52.5 -1t51 10.5t43 28t29 41t10.5 67t-3 90t-30.5 68.5
t-57 26.5t-59.5 3t-96 -21.5v-309z" />
    <glyph glyph-name="c" unicode="c" horiz-adv-x="520" 
d="M404 12q-40 -12 -74.5 -16t-54.5 -4q-54 0 -99 20t-77.5 54t-51 78.5t-18.5 92.5v61q0 46 17.5 90.5t49.5 79t77 55.5t100 20q12 0 41 -2.5t58.5 -8.5t78.5 -26q6 -1 -5.5 -47t-18.5 -44q-32 8 -68 18t-72.5 10t-62.5 -14t-43 -38.5t-25.5 -51.5t-7.5 -79.5t9.5 -77.5
t26 -43.5t43 -29.5t60 -10.5t139.5 26.5q10 1 22 -48.5t4 -51.5z" />
    <glyph glyph-name="otilde" unicode="&#xf5;" horiz-adv-x="590" 
d="M272 -8q-52 0 -96 18.5t-76.5 51.5t-50.5 77.5t-18 97.5v62q0 52 18 97t50.5 78t76.5 51.5t96 18.5h16q52 0 96 -18.5t76.5 -51.5t50.5 -78t18 -97v-62q0 -53 -18 -97.5t-50.5 -77.5t-76.5 -51.5t-96 -18.5h-16zM152 226q0 -27 8.5 -50.5t24.5 -41t38 -27t49 -9.5h16
q54 0 86.5 36.5t32.5 91.5v73q0 27 -8.5 53t-24 46.5t-37.5 33t-49 12.5h-16q-27 0 -49 -12.5t-38 -33t-24.5 -46.5t-8.5 -53v-73zM153 615q-2 -2 -8 -2t-15.5 4t-18 10t-14.5 12.5t-6 11.5q0 7 10.5 22t25.5 30.5t36 26.5t45 11t41 -7.5t29.5 -16l23.5 -16t29 -7.5t33 15.5
t25 31.5q2 3 15 -1.5t22.5 -9.5t17 -12t6.5 -10q-2 -4 -10.5 -18.5t-23.5 -30.5t-36 -29t-47 -13t-42 6.5t-28 14l-22.5 14t-24.5 6.5t-22 -3t-20 -16.5z" />
    <glyph glyph-name="parenleft" unicode="(" horiz-adv-x="384" 
d="M204 833q2 3 7.5 3t23 -7.5t36 -17t34.5 -21.5t13 -14q-81 -102 -115 -216.5t-34 -213.5t16.5 -169t40 -125.5t50 -95.5t46.5 -64q3 -5 -11.5 -15.5t-33 -20t-37 -17t-27.5 -7.5q-3 0 -4 1q-30 34 -63.5 83t-61.5 111.5t-46.5 138.5t-17.5 169.5t19 165.5t44.5 133
t58.5 111t62 88z" />
    <glyph glyph-name="parenright" unicode=")" horiz-adv-x="384" 
d="M146 833q30 -39 63 -90.5t60 -114.5t44.5 -137.5t17.5 -161.5t-18.5 -163t-46.5 -138.5t-61.5 -111.5t-63.5 -83q-2 -2 -8 -1.5t-25 7.5t-37.5 16.5t-32.5 20t-12 14.5q21 26 47.5 66t50.5 95.5t40 125.5t16 171t-34.5 211.5t-112.5 215.5q-1 1 -1 4t15 14.5t32.5 20.5
t35 15.5t23.5 6.5t8 -3z" />
    <glyph glyph-name="perthousand" unicode="&#x2030;" horiz-adv-x="1358" 
d="M255 35l327 707q2 4 19 -0.5t34 -11.5t29.5 -15.5t10.5 -11.5l-329 -710q-6 -1 -20 2t-31 11t-28.5 16t-11.5 13zM906 213v-44q0 -38 -13.5 -70.5t-36.5 -56.5t-55.5 -37.5t-75.5 -13.5t-75 13.5t-55 37.5t-36.5 56.5t-13.5 70.5v44q0 38 13.5 70.5t36.5 56.5t55 37.5
t75 13.5t75.5 -13.5t55.5 -37.5t36.5 -56.5t13.5 -70.5zM807 213q0 36 -21 58.5t-60.5 22.5t-60.5 -22.5t-21 -58.5v-44q0 -36 21 -58.5t60.5 -22.5t60.5 22.5t21 58.5v44zM391 569v-44q0 -38 -13.5 -70.5t-36.5 -56.5t-55.5 -37.5t-75.5 -13.5t-75 13.5t-55 37.5
t-36.5 56.5t-13.5 70.5v44q0 38 13.5 70.5t36.5 56.5t55 37.5t75 13.5t75.5 -13.5t55.5 -37.5t36.5 -56.5t13.5 -70.5zM129 525q0 -36 21 -58.5t60.5 -22.5t60.5 22.5t21 58.5v44q0 36 -21 58.5t-60.5 22.5t-60.5 -22.5t-21 -58.5v-44zM1306 213v-44q0 -38 -13.5 -70.5
t-36.5 -56.5t-55.5 -37.5t-75.5 -13.5t-75 13.5t-55 37.5t-36.5 56.5t-13.5 70.5v44q0 38 13.5 70.5t36.5 56.5t55 37.5t75 13.5t75.5 -13.5t55.5 -37.5t36.5 -56.5t13.5 -70.5zM1044 213v-44q0 -36 21 -58.5t60.5 -22.5t60.5 22.5t21 58.5v44q0 36 -21 58.5t-60.5 22.5
t-60.5 -22.5t-21 -58.5z" />
    <glyph glyph-name="questiondown" unicode="&#xbf;" horiz-adv-x="543" 
d="M105 168l131 101q8 7 9 17q0 5 16 7t46.5 2t46 -3t15.5 -6q0 -27 -8 -48t-20 -37t-25.5 -27.5t-77 -60.5t-77.5 -69t-12.5 -60t37 -66t85.5 -26t97 11.5l95 23.5q7 0 14.5 -18t12 -54t1.5 -38q0 -4 -32.5 -13.5t-57.5 -14t-49 -8t-46 -5.5t-48.5 -2t-65.5 7t-79 30
t-63 61.5t-27 69.5t-4 57t6.5 52.5t18 47.5t27 37.5t34.5 31.5zM245 405v116q1 5 20 7t41 2t40.5 -2t20.5 -7v-116q-1 -3 -20 -6t-41 -3t-41 3t-20 6z" />
    <glyph glyph-name="germandbls" unicode="&#xdf;" horiz-adv-x="681" 
d="M162 7q0 -3 -15.5 -5t-46.5 -2t-46 2t-15 5q-2 544 0 568t9.5 46.5t22 48.5t40.5 48.5t65.5 37t91.5 14.5t105 -15t89 -52t52.5 -73t16.5 -73t-14 -58.5t-34.5 -36.5t-42.5 -27.5t-35.5 -24.5t-12 -33.5t24 -32t53.5 -18t63.5 -17t53 -31.5t27 -47t6.5 -56.5t-7.5 -65
t-28 -60t-57.5 -42.5t-95.5 -16t-98 13.5t-77.5 32.5q-4 1 -1 19.5t9 36.5t14 30t11 11t20.5 -8.5t53 -20.5t62 -13t40 3t23.5 12t16 25.5t6 39.5t-7 35.5t-35.5 20.5t-54 13t-69 19t-59.5 44.5t-16 62t10 53.5t25.5 35t34.5 27l35.5 25.5t27 27.5t10.5 40t-12 41.5
t-31 27.5t-41 13.5t-44 3.5t-44.5 -6t-39.5 -19.5t-27.5 -35t-10.5 -77.5v-516z" />
    <glyph glyph-name="oe" unicode="&#x153;" horiz-adv-x="994" 
d="M926 284q0 -15 -10 -18l-337 -76q11 -33 36.5 -56.5t63 -23.5t80.5 9t85 20q3 0 9.5 -13t14.5 -49t4 -48q0 -6 -22.5 -13t-51.5 -12.5t-58 -9.5t-77 -3.5t-93 22t-77 58.5q-35 -38 -83 -59.5t-110 -21.5t-108.5 20t-81.5 55t-55 81.5t-20 123.5t20 123.5t55 81.5t81.5 55
t109.5 20t110.5 -22t82.5 -60q33 37 78 58t107.5 21t103.5 -17.5t72 -48.5t49.5 -73t20.5 -91zM431 294q-2 33 -12.5 54t-27 36.5t-38.5 24.5t-55 9t-55.5 -10t-39.5 -26.5t-26.5 -39.5t-9.5 -48v-48q0 -26 9.5 -48.5t26.5 -39t39.5 -26.5t55.5 -10t55 9t38.5 24t27 36
t12.5 45v58zM564 297l218 55q-11 38 -39 54t-75 11.5t-77.5 -34t-26.5 -86.5z" />
    <glyph glyph-name="Lslash" unicode="&#x141;" horiz-adv-x="600" 
d="M263 330v-137q0 -21 9 -34t23.5 -22.5t40.5 -10.5h208q2 0 5 -16t3 -44t-3 -47t-5 -19h-208q-45 -1 -83 13.5t-65.5 40.5t-43 61.5t-15.5 77.5v88l-73 -27q-3 -1 -13.5 13.5t-16.5 31t-8.5 37t0.5 21.5l111 41v326q0 2 19.5 5t47.5 3t47.5 -3t19.5 -5v-277l163 60
q3 1 11 -15.5t14 -34t11 -35t2 -18.5z" />
    <glyph glyph-name="florin" unicode="&#x192;" horiz-adv-x="605" 
d="M351 524q24 7 49 9t47 2.5t25 0t4.5 -8.5t1.5 -32.5t-8.5 -49.5t-11.5 -25q-31 0 -62.5 -5t-56.5 -12l-40 -412q-5 -46 -28 -82.5t-55 -65t-72.5 -45.5t-66 -17t-66.5 3q-4 1 -4.5 15.5t3 44t7.5 41t10 11.5q34 -1 46.5 -1t31 8t34 22t26 32t12.5 38l54 565q7 47 31 86
t58.5 66.5t76.5 42t75.5 14.5t50 -1.5l39.5 -3.5q4 0 3.5 -19.5t-2.5 -39t-7.5 -36.5t-9.5 -16q-14 2 -32.5 2h-33.5q-51 0 -86.5 -26t-39.5 -72z" />
    <glyph glyph-name="OE" unicode="&#x152;" horiz-adv-x="1029" 
d="M679 316q-29 -1 -50.5 -7.5t-40 -19t-30.5 -31t-12 -47t11 -46t30 -29t42.5 -19t55 -6.5t65.5 11l173 52q3 1 11.5 -15t15 -37.5t9 -42.5t-1.5 -22l-138 -42q-39 -11 -73.5 -17t-77 -6t-81.5 9.5t-72 29.5l-44 -13q-38 -11 -76.5 -18.5t-88 -7.5t-100.5 22t-88.5 59.5
t-59.5 88.5t-22 108v211q0 58 22 108t60.5 87t90.5 58t111 21q62 0 126 -14l86 -20h1q32 18 71 26.5t75 8.5q66 0 130.5 -16.5l129.5 -32.5q3 -1 3.5 -16t-7.5 -46.5t-14.5 -44t-9.5 -12.5l-163.5 39.5t-68 8.5t-53.5 -5.5t-40 -16.5t-29 -28t-11 -40t11 -42t28 -33
t38 -22.5t51 -9.5h188q2 0 5 -17.5t3 -43.5t-3 -44t-5 -18h-183zM495 372q-35 29 -60 71.5t-25 84.5t6.5 58.5t14.5 30.5q-57 11 -102 12.5t-71 -9t-45.5 -29.5t-31 -44t-11.5 -55v-235q0 -30 11.5 -56t31 -45.5t45.5 -30.5t73 -10t93 16q-8 14 -12 31.5t-4 53t24.5 79
t62.5 77.5z" />
    <glyph glyph-name="ae" unicode="&#xe6;" horiz-adv-x="933" 
d="M499 25v-20l-136.5 -10.5t-53.5 -2.5t-59 -1t-46.5 1.5t-41.5 7t-41.5 16t-38 27.5t-27 36t-15 38t-6.5 49.5t6 57.5t30 59.5t60.5 46t80 19.5t165.5 13q-4 35 -21.5 58.5t-59 21t-80.5 -8t-118 -21.5q-6 -1 -11.5 14t-9 33.5t-2.5 33t5 17.5q34 11 65 18t60 11t58.5 5.5
t66.5 0t56 -7t37.5 -18t36.5 -36.5q31 28 70 44t97.5 16t99 -17t71 -47.5t48.5 -72t21.5 -86.5t-8.5 -50l-342 -77q16 -62 53 -77.5t92.5 -9t125.5 25.5q5 1 12.5 -14.5t12.5 -35t5 -38t-5 -19.5q-44 -12 -81 -20.5t-79.5 -10t-78.5 3t-74 27.5zM378 269q-137 -4 -168.5 -14
t-43 -31t-10 -51t19.5 -53t55 -23q120 6 138 7q6 1 7.5 6t1.5 159zM733 348q-17 44 -41.5 60t-73 15.5t-85.5 -30.5t-31 -103z" />
    <glyph glyph-name="mu" unicode="&#xb5;" horiz-adv-x="569" 
d="M391 122v405q0 4 16 6t46 2t46 -2.5t17 -5.5v-518l-102.5 -11t-120 -5t-129.5 24v-238q-1 -6 -22.5 -7.5t-45.5 -1.5t-38.5 2.5t-15.5 6.5v748q0 3 13.5 5.5t48.5 2.5t48 -2.5t14 -5.5v-305q0 -28 6.5 -46.5t20.5 -31.5t39 -19.5t62.5 -7t96.5 4.5z" />
    <glyph glyph-name="Ccedilla" unicode="&#xc7;" horiz-adv-x="632" 
d="M282 -7v-3q-1 -10 50 -14t73.5 -18.5t29.5 -32.5t5.5 -55.5t-29.5 -64.5t-67.5 -27t-67 7l-53.5 14q-4 2 -5 15t4.5 29.5t13.5 16.5q20 -5 43 -12t46.5 -7t36.5 11.5t13 26t-8.5 25.5t-57.5 18.5l-58.5 9t-16 7.5t-11 18t-3.5 42q-43 13 -79 38t-62.5 59.5t-41 77
t-14.5 89.5v209q1 39 7 65.5t16.5 51.5t41 59.5t68 56t80.5 31t95.5 8.5t112.5 -16l120 -29q3 -1 4 -10t-2.5 -28t-8.5 -37.5t-11 -31.5t-11 -12l-115.5 28t-104 14t-71.5 -10.5t-45.5 -29t-30.5 -44t-11 -54.5v-232q0 -29 11.5 -55.5t31.5 -46t47.5 -31t57 -11.5t58 5.5
t58 14t116.5 37.5q3 1 12 -15t16 -36.5t9 -42.5t-2 -23q-103 -36 -157.5 -45t-132.5 -10z" />
    <glyph glyph-name="yen" unicode="&#xa5;" horiz-adv-x="717" 
d="M506 404h35h67q6 0 7.5 -16.5t1.5 -29t-1.5 -28.5t-7.5 -17h-144l-14 -30q-13 -27 -36 -35l-1 -18h195q6 -1 7.5 -17.5t1.5 -29t-1.5 -28.5t-7.5 -17h-195v-130q0 -2 -19 -5t-46.5 -3t-47 3t-19.5 5v130h-195q-7 1 -7 46t7 46h195v12q-28 11 -36 19.5t-14 21.5l-14 30
h-131q-7 0 -9 46q2 45 9 46h88l-154 332q-2 3 23.5 5.5t49.5 2.5t45 -1t22 -5l161 -335h39l159 334q2 4 23 5.5t45.5 1.5t49.5 -2t24 -6z" />
    <glyph glyph-name="currency" unicode="&#xa4;" horiz-adv-x="642" 
d="M569 164q2 -4 -8 -16.5t-22 -24.5t-26.5 -23.5t-18.5 -8.5l-72 71q-24 -15 -52 -23.5t-60 -8.5h-13q-32 0 -60.5 8.5t-52.5 23.5l-71 -71q-6 -3 -18 5.5t-24 20t-24 27.5t-8 21l74 74q-11 23 -17.5 48.5t-6.5 53.5v52q0 29 6.5 54t17.5 48l-75 76q-2 3 9 17t23 26
t25 22.5t16 8.5l73 -73q50 32 113 32h13q63 0 113 -32l72 73q2 2 15.5 -8.5t25.5 -22.5t23.5 -26t9.5 -16l-75 -77q11 -23 17.5 -48t6.5 -54v-52q0 -56 -25 -102zM310 245q32 2 50 15.5t27 32.5t11 41t2 42q0 19 -4 39.5t-14.5 36.5t-29.5 26.5t-48 10.5q-18 0 -33 -4
l-18 -7q-32 -18 -39 -49.5t-7 -65.5q0 -23 4 -44t15.5 -37.5t31.5 -26.5t52 -10z" />
    <glyph glyph-name="guillemotleft" unicode="&#xab;" 
d="M147 267l109 -145q2 -3 -7.5 -14.5t-23 -22.5t-29 -19t-19.5 -8.5t-5 1.5l-137 184q-11 13 -11 24t11 25l141 187q3 4 21.5 -5t31.5 -20.5t23 -23.5t7 -14zM397 267l109 -145q2 -3 -7.5 -14.5t-23 -22.5t-29 -19t-19.5 -8.5t-5 1.5l-137 184q-11 13 -11 24t11 25l141 187
q3 4 21.5 -5t31.5 -20.5t23 -23.5t7 -14z" />
    <glyph glyph-name="guillemotright" unicode="&#xbb;" horiz-adv-x="579" 
d="M405 273l-109 145q-2 3 7.5 14.5t23 22.5t29 19t19.5 8.5t5 -1.5l137 -184q11 -13 11 -24t-11 -25l-141 -187q-3 -4 -21.5 5t-31.5 20.5t-23 23.5t-7 14zM155 273l-109 145q-2 3 7.5 14.5t23 22.5t29 19t19.5 8.5t5 -1.5l137 -184q11 -13 11 -24t-11 -25l-141 -187
q-3 -4 -21.5 5t-31.5 20.5t-23 23.5t-7 14z" />
    <glyph glyph-name="guilsinglright" unicode="&#x203a;" horiz-adv-x="308" 
d="M142 273l-109 145q-2 3 7.5 14.5t23 22.5t29 19t19.5 8.5t5 -1.5l137 -184q11 -13 11 -24t-11 -25l-141 -187q-3 -4 -21.5 5t-31.5 20.5t-23 23.5t-7 14z" />
    <glyph glyph-name="Ydieresis" unicode="&#x178;" horiz-adv-x="644" 
d="M226 882v-94q0 -6 -32 -8t-60.5 0t-29.5 8v94q0 3 19 5.5t41.5 2.5t41.5 -2.5t20 -5.5zM456 882v-94q0 -6 -32 -8t-60.5 0t-29.5 8v94q0 3 19 5.5t41.5 2.5t41.5 -2.5t20 -5.5zM444 299q-32 -19 -73 -28.5t-86 -9.5t-94.5 16t-86 45t-54.5 72.5t-19 127.5v214q0 5 34 7.5
t66 0t32 -6.5l-1 -211q0 -71 21.5 -97t48 -35.5t55.5 -9.5t55.5 5.5t48 20.5t36 37t14.5 70l-3 220q1 4 22.5 6t47.5 2t47.5 -2t21.5 -6v-483q0 -64 -24 -113t-64 -82.5t-91.5 -49.5t-101 -17t-80.5 12t-57 31.5t-48 40t-57 49.5q-3 3 12.5 30t39.5 44t27 15
q29 -19 40.5 -33.5t28 -33.5t39.5 -27t52 -6.5t57.5 12t48.5 28.5t33 46.5t12 98.5z" />
    <glyph glyph-name="brokenbar" unicode="&#xa6;" horiz-adv-x="208" 
d="M134 225l-1 -450q-5 0 -15 -2.5t-30 -2.5q-22 0 -31.5 2.5t-14.5 2.5l1 450q0 3 14 5t31 2t31.5 -2t14.5 -5zM89 867q43 -1 45 -6l-1 -449q-1 -4 -13.5 -6.5t-32 -2.5t-32 2.5t-13.5 6.5l1 449q0 5 46 6z" />
    <glyph glyph-name="divide" unicode="&#xf7;" horiz-adv-x="561" 
d="M325 522v-120q0 -4 -19.5 -6.5t-42.5 -2.5t-42 2.5t-20 6.5v120q0 4 19.5 6t42.5 2t42.5 -2t19.5 -6zM13 316h501q3 0 5 -15.5t2 -32.5t-1.5 -32t-5.5 -15h-501q-6 6 -6.5 49t6.5 46zM325 144v-121q0 -4 -19.5 -6.5t-42.5 -2.5t-42.5 2.5t-19.5 6.5v121q0 4 19.5 6
t42.5 2t42 -2t20 -6z" />
    <glyph glyph-name="fi" unicode="&#xfb01;" horiz-adv-x="621" 
d="M545 619q0 -2 -19 -5t-46 -3t-46.5 3t-19.5 5v127q0 2 19.5 5t46.5 3t46 -3t19 -5v-127zM545 535l-1 -527q0 -2 -18.5 -5t-46.5 -3q-26 0 -45.5 2.5t-19.5 4.5v404h-243v-403q0 -2 -21 -5t-47.5 -3t-45 3t-18.5 5v540q0 46 17.5 86t47.5 70t69.5 46.5t95.5 18.5
q24 1 53.5 0.5t58.5 -5.5q2 0 3.5 -15t1.5 -43t-3.5 -45.5t-7.5 -16.5q-97 2 -131.5 -1.5t-53.5 -32t-19 -75.5h374z" />
    <glyph glyph-name="fl" unicode="&#xfb02;" horiz-adv-x="599" 
d="M523 762v-754q0 -2 -19.5 -5t-45.5 -3t-46 3t-20 5v754q0 2 34 6.5t65.5 0t31.5 -6.5zM381 764q2 0 3.5 -14.5t1.5 -41.5t-3.5 -46t-7.5 -18l-95 3q-48 1 -78.5 -24t-30.5 -67v-21h156q2 0 5 -17.5t3 -44.5t-3 -44.5t-5 -17.5h-156v-403q-2 -2 -22 -5t-46.5 -3t-45 3
t-18.5 5v540q0 49 18.5 90t50.5 70t76 45.5t94 16.5q26 0 51.5 -2z" />
    <glyph glyph-name="asciitilde" unicode="~" horiz-adv-x="617" 
d="M121 209q-2 -2 -9 -2q-12 0 -26 5.5t-26 14t-20 18t-11 18.5q3 10 19.5 31t39.5 43.5t55.5 36.5t66.5 14t57.5 -11t40.5 -23.5l33 -23.5t36 -11t32.5 8t29 30.5t22.5 33.5q0 1 6 1.5t23 -6t31 -14.5t23 -16.5t9 -13.5l-16 -25.5t-34.5 -43.5t-51.5 -41t-69 -18t-61 11
t-39 24.5t-34.5 25t-47 8.5t-46 -25.5t-33.5 -48.5z" />
    <glyph glyph-name="endash" unicode="&#x2013;" horiz-adv-x="656" 
d="M50 372h522q4 0 7 -20.5t3 -43.5t-3 -43.5t-7 -20.5h-522q-4 1 -7 21t-3 43t3 43.5t7 20.5z" />
    <glyph glyph-name="emdash" unicode="&#x2014;" horiz-adv-x="778" 
d="M50 372h644q4 -1 7 -21t3 -43t-3 -43t-7 -21h-644q-4 1 -7 21t-3 43t3 43t7 21z" />
    <glyph glyph-name="ellipsis" unicode="&#x2026;" horiz-adv-x="584" 
d="M42 123q0 4 19.5 6t42.5 2t42.5 -2t19.5 -8v-117q0 -5 -19.5 -7t-42.5 -2t-42 2t-20 7v119zM213 123q0 4 19.5 6t42.5 2t42.5 -2t19.5 -8v-117q0 -5 -19.5 -7t-42.5 -2t-42 2t-20 7v119zM384 123q0 4 19.5 6t42.5 2t42.5 -2t19.5 -8v-117q0 -5 -19.5 -7t-42.5 -2t-42 2
t-20 7v119z" />
    <glyph glyph-name="quotedblbase" unicode="&#x201e;" horiz-adv-x="415" 
d="M86 -4q-14 1 -23 2t-11 8v117q0 4 19.5 6t42.5 2t42.5 -2t19.5 -6v-106q0 -17 -3 -35.5t-70 -121.5q-3 -4 -15 0.5t-24 10.5t-22 15.5t-8 14.5q41 57 45.5 72t6.5 23zM256 -4q-14 1 -23 2t-11 8v117q0 4 19.5 6t42.5 2t42.5 -2t19.5 -6v-106q0 -17 -4 -38t-69 -119
q-3 -4 -15 0.5t-24 10.5t-22 15.5t-8 14.5q41 58 45.5 72.5t6.5 22.5z" />
    <glyph glyph-name="quotesinglbase" unicode="&#x201a;" horiz-adv-x="213" 
d="M76 -4q-14 1 -23.5 2t-10.5 7v118q0 4 19.5 6t42.5 2t41.5 -2t20.5 -6v-106q0 -17 -3.5 -32.5t-11.5 -29.5l-57 -95q-4 -2 -17 2t-25 10t-21 15t-7 14l33 51q9 14 13 25t6 19z" />
    <glyph glyph-name="AE" unicode="&#xc6;" horiz-adv-x="1044" 
d="M183 154l-37 -161q0 -1 -10 -1t-29 3.5t-36.5 9t-30 11t-11.5 8.5q5 27 24.5 117t75 253.5t134.5 324.5q7 15 25.5 19.5t31.5 5.5t27.5 1t27 -1t13.5 -3l52 -162v1q32 81 101 123t160 42q64 0 128 -16.5l126 -31.5q2 -1 3 -13t-6.5 -45t-15 -46.5t-10.5 -12.5l-169.5 40
t-49.5 7t-41.5 -2t-41.5 -12.5t-35 -29.5t-15 -45t7 -42.5t23.5 -30.5t37 -23t41.5 -10h195q2 0 5 -17.5t3 -43.5t-3 -43.5t-5 -17.5h-190q-23 0 -44.5 -8t-39 -21.5t-28 -31.5t-10.5 -41t12 -42.5t30.5 -32.5t41.5 -19.5t43 -6.5t51 6.5t195 56.5q2 1 11 -15.5t15 -38
t7.5 -36.5l2 -20t-1.5 -6l-160.5 -48t-121 -16.5t-117.5 20.5q-18 -11 -44.5 -15.5t-33.5 -5t-7 1.5q-14 46 -54 168q-29 -9 -63.5 -16t-66.5 -7t-64 5t-58 13zM400 269l-88 274q-16 -38 -30 -76.5l-27 -74.5t-23.5 -68.5l-18.5 -57.5q20 -6 44.5 -10.5t46 -4.5t47.5 5.5
t49 12.5z" />
    <glyph glyph-name="Eth" unicode="&#xd0;" horiz-adv-x="727" 
d="M95 -1v318h-61q-7 3 -7 51t7 49h61v319l275 9q54 1 106.5 -21.5t93.5 -66.5t65 -104t24 -129v-176q0 -58 -19.5 -105t-54 -80t-82 -51t-104.5 -18zM229 119l170 -6q59 4 79 22.5t33.5 43.5t13.5 63l-1 189q0 46 -15.5 82.5t-38 61.5t-50 38t-51.5 13l-140 -9v-200h160
q11 -3 11 -51t-11 -49h-160v-198z" />
    <glyph glyph-name="paragraph" unicode="&#xb6;" horiz-adv-x="540" 
d="M347 723q0 2 17.5 5.5t46.5 3t41 -3.5t12 -5v-754q0 -2 -16.5 -5t-41.5 -3t-42 3t-17 5v754zM279 275q-1 -9 -16 -8h-43q-44 0 -82 16.5t-67 45.5t-45.5 67t-16.5 82v42q0 44 16.5 82.5t45.5 67.5t67 45.5t82 16.5q48 0 53.5 -1t5.5 -9v-447z" />
    <glyph glyph-name="plusminus" unicode="&#xb1;" horiz-adv-x="568" 
d="M31 103h473q7 -3 6 -50t-8 -50h-471q-9 7 -9 51t9 49zM205 319h-167q-4 0 -7 19.5t-3 42t3 42t7 19.5h167v150q0 2 19.5 5t42 3t42 -3t19.5 -5v-150h166q2 0 6 -19.5t4 -42t-4 -42t-6 -19.5h-166v-165q0 -2 -19.5 -5t-42 -3t-41.5 3t-20 5v165z" />
    <glyph glyph-name="guilsinglleft" unicode="&#x2039;" horiz-adv-x="307" 
d="M132 267l109 -145q2 -3 -7.5 -14.5t-23 -22.5t-29 -19t-19.5 -8.5t-5 1.5l-137 184q-11 13 -11 24t11 25l141 187q3 4 21.5 -5t31.5 -20.5t23 -23.5t7 -14z" />
    <glyph glyph-name="ccedilla" unicode="&#xe7;" horiz-adv-x="509" 
d="M234 -12l-1 -8q-3 -11 14.5 -14.5t53.5 -9.5t49.5 -15t20.5 -27.5t6.5 -49.5t-23.5 -55t-55 -25.5t-54.5 3t-64.5 18.5q-2 2 -1 13.5t5.5 21t7.5 8.5q52 -14 80.5 -15.5t41.5 9.5t13 32.5t-17 30.5t-63.5 15t-55.5 11t-10 18t5 50q-37 13 -68 36t-53 54t-34.5 68
t-12.5 78v62q0 48 19 93t51.5 79.5t69 53t81.5 20t73.5 -2t62.5 -10t70 -19.5q4 -3 0.5 -26.5t-14 -48.5t-12.5 -24q-38 9 -75 16.5t-69.5 7.5t-57 -10t-43 -27.5t-29.5 -40.5t-11 -49v-87q0 -28 11.5 -51t31 -40t45 -26.5t59.5 -9.5t69 8l69 16q4 2 10.5 -7.5t12 -32
t6 -38.5t-2.5 -17q-37 -16 -63.5 -22t-62.5 -11t-85 -3z" />
    <glyph glyph-name="cent" unicode="&#xa2;" horiz-adv-x="509" 
d="M249 517v22q0 3 11 4t24 1t24 -1t11 -4v-26q34 -5 63.5 -12l58.5 -14q4 -1 4 -7q0 -26 -8 -54t-11 -32.5t-5 -3.5q-77 26 -102 26v-49q0 -1 -11 -3t-24 -2t-24 2t-11 3v48q-25 -5 -44 -18t-32 -31t-20.5 -39.5t-8.5 -42.5v-37q3 -44 29.5 -75.5t75.5 -41.5v51q0 1 11 3
t24 2t24 -2t11 -3v-50q29 4 53.5 10.5l47.5 12.5q3 1 6 -3.5t10.5 -32t10.5 -44.5t-1 -18q-3 -1 -15.5 -4t-33 -8.5t-42 -10.5t-36.5 -5v-31q0 -1 -11 -3t-24 -2t-24 2t-11 3v27q-50 3 -91.5 24t-71.5 55t-46.5 76.5t-16.5 88.5v4q0 47 17.5 90t47.5 76.5t71.5 54.5t89.5 24
z" />
    <glyph glyph-name="oslash" unicode="&#xf8;" horiz-adv-x="604" 
d="M411 504l58 79q3 2 15.5 -4t23.5 -14t22 -18.5t9 -14.5l-60 -81q60 -66 60 -164v-62q0 -52 -18 -96.5t-50 -77.5t-76 -51.5t-95.5 -18.5t-83 9t-58.5 25l-63 -84q-3 -3 -16 2.5t-24 14t-21 19.5t-8 14l67 92q-23 31 -36 69t-13 83v62q0 52 18 96.5t50 77.5t75.5 51.5
t93 18.5t77.5 -7t53 -20zM171 179l169 228q-23 8 -53.5 7.5t-52 -10t-37.5 -27t-24.5 -40.5t-8.5 -50q-2 -82 7 -108zM228 111q25 -13 75 -13t82.5 36.5t32.5 90.5v62q0 32 -14 63z" />
    <glyph glyph-name="grave" unicode="`" horiz-adv-x="279" 
d="M231 650q2 -2 -3.5 -14t-13.5 -25t-15.5 -23t-10.5 -9l-173 91q-2 1 4.5 19t15 32t18.5 25t14 10z" />
    <glyph glyph-name="daggerdbl" unicode="&#x2021;" horiz-adv-x="524" 
d="M301 208h173q4 -1 6 -14.5t1 -43.5t-7 -30h-173v-203q0 -4 -18 -6.5t-38 -2.5t-37.5 2.5t-18.5 6.5v203h-174q-3 0 -5.5 13.5t-2.5 30t2.5 30.5t5.5 14h174v250h-174q-3 1 -5.5 14.5t-2.5 30t2.5 30.5t5.5 13h174v191q0 4 18 6t38 2t38 -2t18 -6v-191h173q6 -1 7.5 -25.5
t-1 -43.5t-6.5 -19h-173v-250z" />
    <glyph glyph-name="dagger" unicode="&#x2020;" horiz-adv-x="518" 
d="M298 458v-541q0 -4 -18 -5.5t-38 -1.5t-38 1.5t-18 5.5v541h-174q-2 0 -5 14t-3 30.5t3 30t5 13.5h174v191q0 4 18 6t38 2t37.5 -2t18.5 -6v-191h173q6 0 8 -22.5t-1 -44t-7 -21.5h-173z" />
    <glyph glyph-name="ecircumflex" unicode="&#xea;" horiz-adv-x="575" 
d="M152 588q-1 -1 -10 7.5t-17.5 19.5t-16.5 24t-6 15l146 109q11 8 20 8q8 0 18 -8l147 -110q1 -1 1 -3q0 -5 -7.5 -17.5t-15.5 -22t-16.5 -17.5t-10.5 -7l-117 77zM161 181q12 -35 38 -59.5t57.5 -27t64.5 2t110 28.5q4 1 11 -15t11 -32.5t6 -35.5t-2 -20
q-60 -20 -113.5 -25.5t-71.5 -5.5q-57 0 -102 20.5t-76 55t-48.5 78.5t-20.5 110.5t17 119t52.5 89.5t78 58.5t114 21.5t110.5 -22.5t70.5 -60t43 -85.5t14.5 -100q0 -8 -6 -12zM404 350q-2 10 -10.5 26.5t-23 29.5t-35 21.5t-56.5 7.5t-62 -13.5t-43.5 -32t-26 -45.5
t-2.5 -57z" />
    <glyph glyph-name="ocircumflex" unicode="&#xf4;" horiz-adv-x="582" 
d="M152 588q-1 -1 -10 7.5t-17.5 19.5t-16.5 24t-6 15l146 109q11 8 20 8q8 0 18 -8l147 -110q1 -1 1 -3q0 -5 -7.5 -17.5t-15.5 -22t-16.5 -17.5t-10.5 -7l-117 77zM27 237v62q0 52 18 97t50.5 78t76.5 51t104 18.5t104 -18t76.5 -51.5t50.5 -78t18 -97v-62
q0 -53 -18 -97.5t-50.5 -77.5t-76.5 -51.5t-104 -18.5t-104 18.5t-76.5 51.5t-50.5 77.5t-18 97.5zM148 226q0 -27 8.5 -50.5t24.5 -41t38 -27t71 -9t81 36.5t32 91v73q0 27 -7 53t-20.5 46t-37 32.5t-60.5 12.5t-61.5 -12.5t-39.5 -32t-22 -46t-7 -53.5v-73z" />
    <glyph glyph-name="ucircumflex" unicode="&#xfb;" horiz-adv-x="584" 
d="M162 588q-1 -1 -10 7.5t-17.5 19.5t-16.5 24t-6 15l146 109q11 8 20 8q8 0 18 -8l147 -110q1 -1 1 -3q0 -5 -7.5 -17.5t-15.5 -22t-16.5 -17.5t-10.5 -7l-117 77zM397 108v418q0 3 20 6t43 3q59 0 59 -9v-518l-52 -6q-31 -3 -55.5 -5t-56.5 -3.5t-68 -1.5
q-128 -1 -190.5 56t-65.5 168v310q0 3 19.5 6t42.5 3q60 -2 60 -9v-305q1 -26 7 -48t21 -38t40.5 -25t51.5 -9t43 0.5t81 6.5z" />
    <glyph glyph-name="acircumflex" unicode="&#xe2;" horiz-adv-x="563" 
d="M162 588q-1 -1 -10 7.5t-17.5 19.5t-16.5 24t-6 15l146 109q11 8 20 8q8 0 18 -8l147 -110q1 -1 1 -3q0 -5 -7.5 -17.5t-15.5 -22t-16.5 -17.5t-10.5 -7l-117 77zM517 6v310q0 18 -1 38.5t-5 42.5t-11.5 42.5t-20.5 38.5q-20 26 -44 39t-46 19q-26 7 -51 7
q-30 0 -63.5 -2.5t-65.5 -7t-61 -11.5t-50 -15q-4 -2 -2.5 -17.5t5 -34t8.5 -33.5t8 -15q20 2 48 9t59 13t61.5 8.5t54.5 -4t39 -24.5t15 -53l-38 -2q-17 -1 -35.5 -2.5t-35.5 -2.5q-48 -3 -93.5 -12t-81.5 -29t-57.5 -53.5t-21.5 -87.5q0 -8 1 -21.5t5.5 -30t14 -34.5
t26.5 -36q19 -19 39 -29.5t42 -16t45 -6.5t47 -1q67 0 138.5 4.5t127.5 9.5zM397 112q0 -4 -2 -7.5t-7 -4.5q-16 -2 -36.5 -3l-41.5 -2t-40.5 -1.5t-32.5 -0.5q-11 0 -26 1t-28 7t-22 19.5t-9 37.5q0 23 10.5 40.5t36.5 26.5q12 4 29 7t34 5t34 3t29 1q14 0 27 0.5t23 0.5
q11 0 21 1v-59.5t0.5 -38t0.5 -22v-11.5z" />
    <glyph glyph-name="aring" unicode="&#xe5;" horiz-adv-x="559" 
d="M280 587q-38 0 -63.5 23t-25.5 58v21q0 35 25.5 58t63.5 23h6q39 0 64.5 -23t25.5 -58v-21q0 -35 -25.5 -58t-64.5 -23h-6zM245 670q0 -14 9.5 -24t26.5 -10h4q17 0 26.5 10t9.5 24v17q0 14 -9.5 24t-26.5 10h-4q-17 0 -26.5 -10t-9.5 -24v-17zM519 6v310q0 18 -1 38.5
t-5 42.5t-11.5 42.5t-20.5 38.5q-20 26 -44 39t-46 19q-26 7 -51 7q-30 0 -63.5 -2.5t-65.5 -7t-61 -11.5t-50 -15q-4 -2 -2.5 -17.5t5 -34t8.5 -33.5t8 -15q20 2 48 9t59 13t61.5 8.5t54.5 -4t39 -24.5t15 -53l-38 -2q-17 -1 -35.5 -2.5t-35.5 -2.5q-48 -3 -93.5 -12
t-81.5 -29t-57.5 -53.5t-21.5 -87.5q0 -8 1 -21.5t5.5 -30t14 -34.5t26.5 -36q19 -19 39 -29.5t42 -16t45 -6.5t47 -1q67 0 138.5 4.5t127.5 9.5zM399 112q0 -4 -2 -7.5t-7 -4.5q-16 -2 -36.5 -3l-41.5 -2t-40.5 -1.5t-32.5 -0.5q-11 0 -26 1t-28 7t-22 19.5t-9 37.5
q0 23 10.5 40.5t36.5 26.5q12 4 29 7t34 5t34 3t29 1q14 0 27 0.5t23 0.5q11 0 21 1v-59.5t0.5 -38t0.5 -22v-11.5z" />
    <glyph glyph-name="Aring" unicode="&#xc5;" horiz-adv-x="668" 
d="M434 160q-29 -9 -68.5 -16t-71 -7t-63.5 5t-58 13l-37 -160q0 -1 -9 -1t-28.5 3t-38 9t-30 11t-11.5 10q22 103 41.5 183.5t41 141t39.5 106.5l37.5 92.5l38.5 89.5l35 77q5 12 12 16q-18 11 -28.5 28.5t-10.5 39.5v21q0 35 25.5 58t63.5 23h6q39 0 64.5 -23t25.5 -58
v-21q0 -18 -7.5 -33t-20.5 -26l4 -1q6 -4 229 -707q0 -3 -15.5 -10t-35.5 -14t-41 -12.5t-28 -5.5t-7 1l-10 32zM279 803q0 -14 9.5 -24t26.5 -10h5q16 0 25.5 10t9.5 24v17q0 14 -9.5 24t-25.5 10h-5q-17 0 -27 -10t-9 -24v-17zM399 270l-92 290q-17 -39 -33 -82
t-29.5 -83.5l-24 -74t-17.5 -53.5q20 -6 44.5 -10.5t45.5 -4.5t52 5.5t54 12.5z" />
    <glyph glyph-name="icircumflex" unicode="&#xee;" horiz-adv-x="394" 
d="M62 588q-1 -1 -10 7.5t-17.5 19.5t-16.5 24t-6 15l146 109q11 8 20 8q8 0 18 -8l147 -110q1 -1 1 -3q0 -5 -7.5 -17.5t-15.5 -22t-16.5 -17.5t-10.5 -7l-117 77zM242 528l-2 -522q0 -2 -23 -4t-40.5 -2t-37.5 2t-20 4v264v123t1 135q0 2 19 4.5t41.5 2.5t42 -2.5
t19.5 -4.5z" />
    <glyph glyph-name="atilde" unicode="&#xe3;" horiz-adv-x="571" 
d="M158 615q-2 -2 -8 -2t-15.5 4t-18 10t-14.5 12.5t-6 11.5q0 7 10.5 22t25.5 30.5t36 26.5t45 11t41 -7.5t29.5 -16l23.5 -16t29 -7.5t33 15.5t25 31.5q2 3 15 -1.5t22.5 -9.5t17 -12t6.5 -10q-2 -4 -10.5 -18.5t-23.5 -30.5t-36 -29t-47 -13t-42 6.5t-28 14l-22.5 14
t-24.5 6.5t-22 -3t-20 -16.5zM524 6v310q0 18 -1 38.5t-5 42.5t-11.5 42.5t-20.5 38.5q-20 26 -44 39t-46 19q-26 7 -51 7q-30 0 -63.5 -2.5t-65.5 -7t-61 -11.5t-50 -15q-4 -2 -2.5 -17.5t5 -34t8.5 -33.5t8 -15q20 2 48 9t59 13t61.5 8.5t54.5 -4t39 -24.5t15 -53l-38 -2
q-17 -1 -35.5 -2.5t-35.5 -2.5q-48 -3 -93.5 -12t-81.5 -29t-57.5 -53.5t-21.5 -87.5q0 -8 1 -21.5t5.5 -30t14 -34.5t26.5 -36q19 -19 39 -29.5t42 -16t45 -6.5t47 -1q67 0 138.5 4.5t127.5 9.5zM404 112q0 -4 -2 -7.5t-7 -4.5q-16 -2 -36.5 -3l-41.5 -2t-40.5 -1.5
t-32.5 -0.5q-11 0 -26 1t-28 7t-22 19.5t-9 37.5q0 23 10.5 40.5t36.5 26.5q12 4 29 7t34 5t34 3t29 1q14 0 27 0.5t23 0.5q11 0 21 1v-59.5t0.5 -38t0.5 -22v-11.5z" />
    <glyph glyph-name="ntilde" unicode="&#xf1;" horiz-adv-x="591" 
d="M153 615q-2 -2 -8 -2t-15.5 4t-18 10t-14.5 12.5t-6 11.5q0 7 10.5 22t25.5 30.5t36 26.5t45 11t41 -7.5t29.5 -16l23.5 -16t29 -7.5t33 15.5t25 31.5q2 3 15 -1.5t22.5 -9.5t17 -12t6.5 -10q-2 -4 -10.5 -18.5t-23.5 -30.5t-36 -29t-47 -13t-42 6.5t-28 14l-22.5 14
t-31.5 5t-34 -16.5zM171 427v-419q0 -4 -19 -6t-42 -2q-22 0 -41.5 2t-19.5 6v517q51 8 101.5 13t101.5 5q63 1 115 -20t88.5 -59t57 -91.5t20.5 -100t-8 -79.5t-20.5 -67.5t-27.5 -68.5t-30 -64q-1 -2 -21 4t-38.5 15.5t-34.5 20t-14 17.5l10.5 25.5l33.5 79t23 117
t-39.5 110.5t-97 48t-98.5 -3z" />
    <glyph glyph-name="Ntilde" unicode="&#xd1;" horiz-adv-x="681" 
d="M181 775q-2 -2 -8 -2t-15.5 4t-18 10t-14.5 12.5t-6 11.5q0 7 10.5 22t25.5 30.5t36 26.5t45 11t41 -7.5t29.5 -16l23.5 -16t29 -7.5t33 15.5t25 31.5q2 3 15 -1.5t22.5 -9.5t17 -12t6.5 -10q-2 -4 -10.5 -18.5t-23.5 -30.5t-36 -29t-47 -13t-42 6.5t-28 14l-22.5 14
t-24.5 6.5t-22 -3t-20 -16.5zM173 615l-2 -606q0 -5 -22 -7t-47.5 -2t-45 3t-19.5 7v721q80 10 113 13l67 6t65.5 4t56.5 1q61 0 111.5 -24.5t88 -65t59.5 -93.5t24.5 -134.5t-8 -136t-29 -106.5t-46.5 -91.5t-68 -77.5q-9 -9 -19 -17l-21 -16q-2 -3 -27 13t-43 46t-15 34
q27 18 48 41q30 31 47 66.5t27.5 75.5t15 81.5t2.5 86.5t-15.5 81t-35.5 60.5t-48.5 36.5t-45.5 12t-58.5 -2.5t-109.5 -9.5z" />
    <glyph glyph-name="Otilde" unicode="&#xd5;" horiz-adv-x="649" 
d="M181 775q-2 -2 -8 -2t-15.5 4t-18 10t-14.5 12.5t-6 11.5q0 7 10.5 22t25.5 30.5t36 26.5t45 11t41 -7.5t29.5 -16l23.5 -16t29 -7.5t33 15.5t25 31.5q2 3 15 -1.5t22.5 -9.5t17 -12t6.5 -10q-2 -4 -10.5 -18.5t-23.5 -30.5t-36 -29t-47 -13t-42 6.5t-28 14l-22.5 14
t-24.5 6.5t-22 -3t-20 -16.5zM586 251q0 -57 -22 -105t-59.5 -82t-88 -53t-108 -19t-108 19t-88 53t-59.5 82t-22 105v248q0 57 22 104.5t59.5 81t88 52t108 18.5t108 -18.5t88 -52t59.5 -81t22 -104.5v-248zM452 494q0 29 -11 55t-30.5 45.5t-45.5 30.5t-56.5 11t-56.5 -11
t-45.5 -30.5t-30.5 -45.5t-11 -55v-236q0 -29 11 -55t30.5 -45.5t45.5 -30.5t56.5 -11t56.5 11t45.5 30.5t30.5 45.5t11 55v236z" />
    <glyph glyph-name="Atilde" unicode="&#xc3;" horiz-adv-x="670" 
d="M186 775q-2 -2 -8 -2t-15.5 4t-18 10t-14.5 12.5t-6 11.5q0 7 10.5 22t25.5 30.5t36 26.5t45 11t41 -7.5t29.5 -16l23.5 -16t29 -7.5t33 15.5t25 31.5q2 3 15 -1.5t22.5 -9.5t17 -12t6.5 -10q-2 -4 -10.5 -18.5t-23.5 -30.5t-36 -29t-47 -13t-42 6.5t-28 14l-22.5 14
t-24.5 6.5t-22 -3t-20 -16.5zM618 34q0 -3 -15 -10.5t-35.5 -14.5t-41.5 -12t-31 -5q-4 0 -4 1l-53 163q-55 -20 -126.5 -20t-135.5 19l-37 -162q0 -2 -33.5 3t-58.5 15.5t-24 13.5q3 19 12.5 62t30 124t85 268.5t87 217.5t49.5 39.5t64.5 8t38.5 -4.5zM310 560
q-17 -39 -33 -82t-29.5 -83.5l-24 -74t-17.5 -53.5q98 -31 196 3z" />
    <glyph glyph-name="acute" unicode="&#xb4;" horiz-adv-x="280" 
d="M16 652l163 104q4 2 14 -10t18.5 -26t14 -27.5t5.5 -17.5t-1 -5l-169 -89q-6 -2 -14 8t-16 23t-13.5 25t-1.5 15z" />
    <glyph glyph-name="tilde" unicode="&#x2dc;" horiz-adv-x="456" 
d="M94 775q-2 -2 -8 -2t-15.5 4t-18 10t-14.5 12.5t-6 11.5q0 7 10.5 22t25.5 30.5t36 26.5t45 11t41 -7.5t29.5 -16l23.5 -16t29 -7.5t33 15.5t25 31.5q2 3 15 -1.5t22.5 -9.5t17 -12t6.5 -10q-2 -4 -10.5 -18.5t-23.5 -30.5t-36 -29t-47 -13t-42 6.5t-28 14l-22.5 14
t-24.5 6.5t-22 -3t-20 -16.5z" />
    <glyph glyph-name="circumflex" unicode="&#x2c6;" horiz-adv-x="409" 
d="M186 832l-115 -74q-3 -2 -12 5t-17.5 18t-15.5 25.5t-4 16.5l145 110q11 8 19 8t20 -9l147 -113q4 -3 -3 -16.5t-16 -23.5t-18 -17.5t-12 -5.5z" />
    <glyph glyph-name="Scaron" unicode="&#x160;" horiz-adv-x="624" 
d="M421 897q25 -14 24 -19q-16 -45 -57 -73t-97 -28t-96.5 26.5t-57.5 74.5q-1 3 9 10.5t20.5 13t24 8t13.5 0.5q10 -25 31.5 -44t56 -19t56.5 19.5t29 44.5q0 2 3 2t12 -3t29 -13zM515 609q-7 1 -39 6t-81.5 11t-84.5 7.5t-61 -1.5t-41 -11.5t-24 -24.5t-11.5 -54
t8.5 -55.5t35 -27t102.5 -21t126.5 -29t71 -37t37.5 -48.5t12.5 -125t-64.5 -151.5t-141.5 -55.5t-145 7.5t-186 49.5q-3 1 1.5 34.5t18 59.5t16.5 25q29 -11 61 -21t64 -17.5t66.5 -12t56.5 -4.5t41.5 3.5t37.5 13.5t27.5 32.5t9.5 59.5t-12.5 52t-32.5 23t-47 13.5t-98 16
t-112 32t-64 54.5t-24 95.5t8.5 104.5t30 67.5t49 40.5t67.5 22.5t68.5 9.5t54.5 2q31 0 54.5 -2.5t63.5 -7.5t109 -18q4 -1 1 -31.5t-12 -59.5t-18 -27z" />
    <glyph glyph-name="scaron" unicode="&#x161;" horiz-adv-x="545" 
d="M125 743q11 -26 32 -45t55.5 -19t56.5 19.5t29 45.5q1 1 2 1q4 0 13 -3t19 -8t22 -12t12 -12v-1q-16 -45 -57 -72.5t-97 -27.5t-96.5 26t-57.5 74q0 4 8 10t18.5 11.5t21 9.5t15.5 4q2 0 4 -1zM430 421q-115 19 -179.5 21t-79 -11.5t-16.5 -34t4.5 -35t51 -24.5t80.5 -17
l69.5 -13.5t62 -21t47 -42t18.5 -71.5q-2 -51 -9 -77.5t-30 -50t-48 -33.5t-58.5 -15t-83.5 -4q-42 0 -74.5 4t-71.5 14.5t-56.5 18t-18.5 11t6 27.5t19 48t16 21q16 -8 56 -20t81.5 -16.5t65 -4.5t49 5.5t31 21t6 38.5t-29.5 35.5t-68 19t-82 16t-78.5 26.5t-54.5 47
t-20 73t10 71t33 49t59.5 34t91.5 12q57 0 118 -6t105 -15l2.5 -1t1.5 -28t-12 -50t-14 -22z" />
    <glyph glyph-name="exclamdown" unicode="&#xa1;" horiz-adv-x="257" 
d="M114 392q-23 0 -40 2t-23 4v125q6 2 22.5 4t39.5 2t40 -2t23 -4v-125q-6 -2 -22.5 -4t-39.5 -2zM109 -230h1h-1zM109 -230q-27 0 -47 2t-27 4l1 306q0 1 2 12.5t4.5 32t4.5 47.5t2 60v75l14 3q6 1 18 2t29 1q31 0 44.5 -2t16.5 -4v-77q1 -29 3 -55t4 -46t4 -32.5t2 -14.5
l-1 -303v-5q-7 -2 -27 -4t-46 -2h-1z" />
    <glyph glyph-name="trademark" unicode="&#x2122;" horiz-adv-x="529" 
d="M399 642q-21 -14 -31 -28.5t-11 -34.5v-35q0 -3 -4 -5t-18.5 -2t-18.5 2t-4 5v35q-1 20 -10 34t-31 28l-11 -148q0 -5 -19.5 -4t-22.5 2t-3 5l12 202l35 9l32 -27l17.5 -12.5t23.5 -24.5q2 4 8 10.5t19.5 16.5t14.5 11l31 26l35 -10l11 -202q0 -6 -34 -7q-10 0 -11 4z
M185 707q2 0 4 -3t2 -20t-2 -19.5t-4 -2.5h-17q-25 -1 -34 -2v-166q0 -2 -3 -4t-20 -2t-19.5 2t-2.5 4v159l-41 -12q-4 0 -10.5 13.5t-6.5 24.5q0 2 1 3q19 11 55 17t55.5 7t42.5 1z" />
    <glyph glyph-name="Oslash" unicode="&#xd8;" horiz-adv-x="697" 
d="M496 667l69 103q2 3 14 -1.5t23.5 -12t24 -19t10.5 -14.5l-81 -121q21 -32 33 -69t12 -79v-204q0 -56 -21 -104.5t-58 -85.5t-86 -58t-104 -21h-1q-45 0 -84 13.5t-72 36.5l-77 -115q-4 -3 -17 2t-24.5 12.5t-22 19t-8.5 14.5l87 129q-24 33 -37.5 72.5t-13.5 84.5v204
q0 55 21 104t57.5 85.5t85.5 57.5t101.5 21t93 -14.5t75.5 -40.5zM427 565q-18 17 -42.5 27.5t-53.5 10.5t-54.5 -11t-44 -29.5t-29.5 -44t-11 -53.5q-3 -237 2 -249zM470 473l-227 -340q18 -14 40 -22.5t49.5 -8.5t53 11t44 29.5t29.5 43.5t11 54v233z" />
    <glyph glyph-name="multiply" unicode="&#xd7;" horiz-adv-x="537" 
d="M167 252l-135 123q-2 3 9.5 20.5t24.5 31t27 24.5t17 8l141 -130l142 130q6 4 18.5 -5.5t25 -23t24.5 -33t9 -22.5l-134 -123l134 -123q3 -3 -9 -22t-24.5 -32.5t-26.5 -22.5t-17 -7l-142 130l-141 -130q-4 -3 -16.5 6t-25.5 22.5t-26 33t-10 22.5z" />
    <glyph glyph-name="bullet" unicode="&#x2022;" horiz-adv-x="388" 
d="M182 196h-11q-29 0 -54.5 11t-45 30t-30.5 45t-11 55v11q0 29 11 55t30.5 45t45 30t54.5 11h11q29 0 55 -11t45 -30t30 -45t11 -55v-11q0 -29 -11 -55t-30 -45t-45 -30t-55 -11z" />
    <glyph glyph-name="onequarter" unicode="&#xbc;" horiz-adv-x="752" 
d="M227 -6q-3 -3 -17.5 0.5t-31.5 11.5t-30 17.5t-11 15.5l327 703q2 4 17.5 -1t30.5 -12t29.5 -16t12.5 -14zM658 144h22q5 0 7 -12t2 -30.5t-2 -31.5t-7 -13h-22v-53q0 -4 -23 -6.5t-46.5 0t-23.5 6.5v53h-112q-18 0 -29 5.5t-17 14.5t-8 19t-2 19v46q0 19 7.5 30.5
t15.5 21.5l67.5 83.5t41 45t43 36t39.5 14.5q47 0 47 -70v-178zM565 254q-18 -20 -36.5 -46.5t-42.5 -57.5v-6h79v110zM190 739v-382q0 -3 -14 -5.5t-31 -2.5t-32.5 1.5t-15.5 6.5v289l-51 -12q-7 -1 -14.5 23t-7 42t3.5 19q20 8 75 22q17 4 38 4t49 -5z" />
    <glyph glyph-name="dieresis" unicode="&#xa8;" horiz-adv-x="470" 
d="M163 882v-94q0 -6 -32 -8t-60.5 0t-29.5 8v94q0 3 19 5.5t41.5 2.5t41.5 -2.5t20 -5.5zM393 882v-94q0 -6 -32 -8t-60.5 0t-29.5 8v94q0 3 19 5.5t41.5 2.5t41.5 -2.5t20 -5.5z" />
    <glyph glyph-name="onesuperior" unicode="&#xb9;" horiz-adv-x="253" 
d="M178 739v-382q0 -3 -14 -5.5t-31 -2.5t-32.5 1.5t-15.5 6.5v289l-51 -12q-7 -1 -14.5 23t-7 42t3.5 19q20 8 56 17t57 9t49 -5z" />
    <glyph glyph-name="ordmasculine" unicode="&#xba;" horiz-adv-x="385" 
d="M273 708q43 -37 43 -99v-125q0 -61 -39 -97.5t-102 -36.5h-1q-65 0 -102.5 36.5t-37.5 97.5v125q0 61 39 98t101 37h1q28 0 53.5 -9.5t44.5 -26.5zM222 612q0 4 -1 11t-6 14.5t-14.5 13t-25.5 5.5h-1q-46 0 -46 -44v-132q0 -21 10 -31.5t36 -10.5h1q31 0 39 14t8 28v132z
" />
    <glyph glyph-name="onehalf" unicode="&#xbd;" horiz-adv-x="792" 
d="M190 739v-382q0 -3 -14 -5.5t-31 -2.5t-32.5 1.5t-15.5 6.5v289l-51 -12q-7 -1 -14.5 23t-7 42t3.5 19q20 8 75 22q17 4 38 4t49 -5zM227 -6q-3 -3 -17.5 0.5t-31.5 11.5t-30 17.5t-11 15.5l327 703q2 4 17.5 -1t30.5 -12t29.5 -16t12.5 -14zM549 94h158q9 0 10 -46
q-1 -45 -10 -46h-221q-12 0 -22.5 15t-10.5 41.5t1.5 42.5t7.5 31t17 27t81.5 49.5t76 44t3.5 31.5t-36 25.5t-59.5 -5.5l-47.5 -11q-6 -1 -11 6t-8.5 17.5t-6 20.5t-3 23t7.5 15q45 14 70.5 17.5t55.5 3.5q64 0 97.5 -32t34.5 -79.5t-13.5 -69.5t-35.5 -38t-44.5 -27.5
t-83.5 -46.5q-7 -4 -8 -9z" />
    <glyph glyph-name="threequarters" unicode="&#xbe;" horiz-adv-x="785" 
d="M244 547q24 -25 26.5 -63.5t-8.5 -60.5t-30 -38.5t-45 -25.5t-55.5 -9t-55 6t-43.5 12q-4 1 -3.5 14.5t3.5 28.5t7 27.5t9 12.5q22 -7 37 -11t37 -4.5t40.5 9t18.5 25.5t-15 25t-36.5 9h-39.5q-3 0 -4 45q0 42 5 42q51 -2 71 7t20 26t-15 25.5t-32 9t-36 -2t-36 -9.5
q-6 -2 -13.5 7.5t-12 27t-4 30.5t5.5 15q28 10 54 13t47.5 3t45.5 -8.5t43.5 -24t31 -37.5t11.5 -46t-7.5 -44t-21.5 -36zM227 -6q-3 -3 -17.5 0.5t-31.5 11.5t-30 17.5t-11 15.5l327 703q2 4 17.5 -1t30.5 -12t29.5 -16t12.5 -14zM658 144h22q5 0 7 -12t2 -30.5t-2 -31.5
t-7 -13h-22v-53q0 -4 -23 -6.5t-46.5 0t-23.5 6.5v53h-112q-18 0 -29 5.5t-17 14.5t-8 19t-2 19v46q0 19 7.5 30.5t15.5 21.5l67.5 83.5t41 45t43 36t39.5 14.5q47 0 47 -70v-178zM565 254q-18 -20 -36.5 -46.5t-42.5 -57.5v-6h79v110z" />
    <glyph glyph-name="threesuperior" unicode="&#xb3;" horiz-adv-x="353" 
d="M254 547q24 -25 26.5 -63.5t-8.5 -60.5t-30 -38.5t-45 -25.5t-55.5 -9t-55 6t-43.5 12q-4 1 -3.5 14.5t3.5 28.5t7 27.5t9 12.5q22 -7 37 -11t37 -4.5t40.5 9t18.5 25.5t-15 25t-36.5 9h-39.5q-3 0 -4 45q0 42 5 42q51 -2 71 7t20 29q0 14 -15 22.5t-32 9t-36 -2
t-36 -9.5q-6 -2 -13.5 7.5t-12 27t-4 30.5t5.5 15q28 10 54 13t47.5 3t45.5 -8.5t43.5 -24t31 -37.5t11.5 -46t-7.5 -44t-21.5 -36z" />
    <glyph glyph-name="twosuperior" unicode="&#xb2;" horiz-adv-x="384" 
d="M130 442h158q9 0 10 -46q-1 -45 -10 -46h-221q-12 0 -22.5 15t-10.5 41.5t1.5 42.5t7.5 31t17 27t81.5 49.5t76 44t3.5 31.5t-36 25.5t-59.5 -5.5l-47.5 -11q-6 -1 -11 6t-8.5 17.5t-6 20.5t-3 23t7.5 15q45 14 70.5 17.5t55.5 3.5q64 0 97.5 -32t34.5 -79.5t-13.5 -69.5
t-35.5 -38t-44.5 -27.5t-83.5 -46.5q-7 -4 -8 -9z" />
    <glyph glyph-name="quotesingle" unicode="'" horiz-adv-x="229" 
d="M95 476q-2 -2 -15 2.5t-25 11t-22 15t-8 12.5l33 51q9 14 13 25t6 19q-14 1 -23.5 1.5t-10.5 6.5v121q0 2 19.5 4.5t42.5 2.5t42.5 -2.5t19.5 -4.5l1 -108q0 -17 -3.5 -32.5t-13.5 -33.5z" />
    <glyph glyph-name="minus" unicode="&#x2212;" horiz-adv-x="565" 
d="M50 328h431q4 0 7 -20.5t3 -43.5t-3 -43.5t-7 -20.5h-431q-4 0 -7 20.5t-3 43.5t3 43.5t7 20.5z" />
    <glyph glyph-name="logicalnot" unicode="&#xac;" horiz-adv-x="739" 
d="M529 308l-515 1q-4 1 -7 20t-3 41.5t3 41.5t7 19l648 -1v-324q0 -6 -24 -8t-50 -2t-42.5 2.5t-16.5 7.5v202z" />
    <glyph glyph-name="Thorn" unicode="&#xde;" horiz-adv-x="599" 
d="M174 662l153 8q72 0 121.5 -28.5t70.5 -66.5t28.5 -68.5t7.5 -89.5t-24 -107.5t-56.5 -74t-65.5 -34t-69.5 -11t-61.5 -2.5t-104 3v-183q0 -2 -19.5 -5t-47 -3t-46.5 3t-19 5v754q0 2 19 5t46.5 3t47 -3t19.5 -5v-100zM178 301q33 -1 62 -1.5t54 -0.5t47.5 2.5t38.5 10
t26 22t13 29.5t4 38.5t1 48.5t-7 50t-20 38.5t-30.5 18t-61.5 3.5l-131 -7z" />
    <glyph glyph-name="thorn" unicode="&#xfe;" horiz-adv-x="572" 
d="M164 537q40 3 96.5 3t104.5 -16.5t84.5 -48.5t61.5 -85t22.5 -161t-56.5 -159.5t-113 -64.5t-94.5 -13.5t-55 0t-51.5 2.5v-216q0 -4 -19 -6t-41.5 -2t-41.5 2t-19 6l1 983q0 5 19 7t41.5 2t42 -2t19.5 -7zM164 426v-322q120 -5 155.5 6.5t53.5 29t27.5 48t9.5 68
t-9.5 67.5t-28 54t-46.5 38.5t-58.5 14.5t-103.5 -4z" />
    <glyph glyph-name="periodcentered" unicode="&#xb7;" horiz-adv-x="240" 
d="M104 463q23 0 39.5 -2t22.5 -4v-125q-6 -2 -22.5 -4t-39.5 -2t-39.5 2t-22.5 4v125q6 2 22.5 4t39.5 2z" />
    <glyph glyph-name="cedilla" unicode="&#xb8;" horiz-adv-x="289" 
d="M87 -27q0 -8 10 -9q75 -6 98 -17t31 -31.5t8 -49t-23 -54.5t-60 -28t-62 3t-39 10t-14 8q-1 2 2.5 17.5t5.5 21t4 4.5l43 -10.5t42.5 -5.5t35 10.5t14.5 28.5t-11 27.5t-27 13t-35 5.5t-35 5.5t-27 11t-12 17.5t6 45q0 2 9.5 3t16.5 1t16 -0.5t8 -2.5z" />
    <glyph glyph-name="Acircumflex" unicode="&#xc2;" horiz-adv-x="671" 
d="M199 764q-1 -1 -10 7.5t-17.5 19.5t-16.5 24t-6 15l146 109q11 8 20 8q8 0 18 -8l147 -110q1 -1 1 -3q0 -5 -7.5 -17.5t-15.5 -22t-16.5 -17.5t-10.5 -7l-117 77zM618 34q0 -3 -15 -10.5t-35.5 -14.5t-41.5 -12t-31 -5q-4 0 -4 1l-53 163q-55 -20 -126.5 -20t-135.5 19
l-37 -162q0 -2 -33.5 3t-58.5 15.5t-24 13.5q3 19 12.5 62t30 124t85 268.5t87 217.5t49.5 39.5t64.5 8t38.5 -4.5zM310 560q-17 -39 -33 -82t-29.5 -83.5l-24 -74t-17.5 -53.5q98 -31 196 3z" />
    <glyph glyph-name="Icircumflex" unicode="&#xce;" horiz-adv-x="399" 
d="M99 764q-1 -1 -10 7.5t-17.5 19.5t-16.5 24t-6 15l146 109q11 8 20 8q8 0 18 -8l147 -110q1 -1 1 -3q0 -5 -7.5 -17.5t-15.5 -22t-16.5 -17.5t-10.5 -7l-117 77zM288 8q0 -2 -20 -5t-47.5 -3t-47 3t-19.5 5v729q0 2 19.5 5t47 3t47.5 -3t20 -5v-729z" />
    <glyph glyph-name="Ocircumflex" unicode="&#xd4;" horiz-adv-x="646" 
d="M199 764q-1 -1 -10 7.5t-17.5 19.5t-16.5 24t-6 15l146 109q11 8 20 8q8 0 18 -8l147 -110q1 -1 1 -3q0 -5 -7.5 -17.5t-15.5 -22t-16.5 -17.5t-10.5 -7l-117 77zM585 251q0 -57 -22 -105t-59.5 -82t-88 -53t-108 -19t-108 19t-88 53t-59.5 82t-22 105v248q0 57 22 104.5
t59.5 81t88 52t108 18.5t108 -18.5t88 -52t59.5 -81t22 -104.5v-248zM451 494q0 29 -11 55t-30.5 45.5t-45.5 30.5t-56.5 11t-56.5 -11t-45.5 -30.5t-30.5 -45.5t-11 -55v-236q0 -29 11 -55t30.5 -45.5t45.5 -30.5t56.5 -11t56.5 11t45.5 30.5t30.5 45.5t11 55v236z" />
    <glyph glyph-name="Ucircumflex" unicode="&#xdb;" horiz-adv-x="677" 
d="M239 764q-1 -1 -10 7.5t-17.5 19.5t-16.5 24t-6 15l146 109q11 8 20 8q8 0 18 -8l147 -110q1 -1 1 -3q0 -5 -7.5 -17.5t-15.5 -22t-16.5 -17.5t-10.5 -7l-117 77zM473 132l2 605q0 4 19.5 6t47.5 2t47.5 -2t19.5 -6v-724q-150 -14 -187 -16.5t-68.5 -3.5t-46.5 -1
q-41 0 -91 16t-92.5 53t-71 95t-28.5 139.5t13.5 134t36 92t47.5 67.5t54 64.5t58 91.5q1 2 35.5 -6.5t57.5 -25t22 -19.5q-14 -34 -39.5 -71.5t-55 -69.5t-56.5 -76.5t-34.5 -90t-6 -89t16.5 -77t38 -56.5t60 -35.5t82.5 -10t119.5 13.5z" />
    <glyph glyph-name="eth" unicode="&#xf0;" horiz-adv-x="547" 
d="M393 633q20 -20 37.5 -41t31 -48.5t17.5 -120.5v-177q0 -118 -57 -186t-167.5 -66t-171.5 57.5t-63.5 163.5t13 153.5t43.5 73.5t75.5 48t186.5 10q-3 20 -13.5 43.5t-47.5 58.5l-117 -30q-3 -1 -9.5 12.5t-8 29t2.5 16.5l78 21l-60 48q-3 3 4.5 16t17.5 25.5t23 22.5
t16 7q30 -22 114 -88l122 32q3 1 7 -6.5t6.5 -17t3.5 -21.5t-2 -13zM358 402q-104 9 -143.5 -1t-59 -38t-19.5 -102.5t12.5 -108.5t47.5 -45t79 -7t64 40t20 156z" />
    <glyph glyph-name="ring" unicode="&#x2da;" horiz-adv-x="282" 
d="M216 823v-21q0 -35 -25.5 -58t-66.5 -23t-66.5 23t-25.5 58v21q0 34 25.5 57t66.5 23t66.5 -23t25.5 -57zM86 804q0 -14 9.5 -24t28.5 -10t28.5 10t9.5 24v17q0 14 -9.5 24t-28.5 10t-28.5 -10t-9.5 -24v-17z" />
    <glyph glyph-name="caron" unicode="&#x2c7;" horiz-adv-x="406" 
d="M302 939q1 1 10 -7.5t17.5 -19.5t16.5 -24t6 -15l-146 -109q-11 -8 -19 -8q-9 0 -19 8l-147 110q-1 1 -1 4.5t7.5 16t15.5 22t16.5 17.5t10.5 7l117 -77z" />
    <glyph glyph-name="dotaccent" unicode="&#x2d9;" horiz-adv-x="239" 
d="M164 717v-94q-5 -12 -62 -11.5t-60 11.5v94q1 3 20 5t41.5 2t41.5 -2.5t19 -4.5z" />
    </font>
</defs>
</svg>
